  0
SECTION
  2
HEADER
  9
$ACADVER
  1
AC1018
  9
$ACADMAINTVER
 70
     0
  9
$DWGCODEPAGE
  3
ANSI_1252
  9
$INSBASE
 10
0.0
 20
0.0
 30
0.0
  9
$EXTMIN
 10
-79.54999992261224
 20
342.478583312084
 30
0.0
  9
$EXTMAX
 10
217.4500000773858
 20
552.4785833120841
 30
0.0
  9
$LIMMIN
 10
0.0
 20
0.0
  9
$LIMMAX
 10
12.0
 20
9.0
  9
$ORTHOMODE
 70
     0
  9
$REGENMODE
 70
     1
  9
$FILLMODE
 70
     1
  9
$QTEXTMODE
 70
     0
  9
$MIRRTEXT
 70
     1
  9
$LTSCALE
 40
1.0
  9
$ATTMODE
 70
     1
  9
$TEXTSIZE
 40
0.2
  9
$TRACEWID
 40
0.05
  9
$TEXTSTYLE
  7
Standard
  9
$CLAYER
  8
0
  9
$CELTYPE
  6
ByLayer
  9
$CECOLOR
 62
   256
  9
$CELTSCALE
 40
1.0
  9
$DISPSILH
 70
     0
  9
$DIMSCALE
 40
1.0
  9
$DIMASZ
 40
0.18
  9
$DIMEXO
 40
0.0625
  9
$DIMDLI
 40
0.38
  9
$DIMRND
 40
0.0
  9
$DIMDLE
 40
0.0
  9
$DIMEXE
 40
0.18
  9
$DIMTP
 40
0.0
  9
$DIMTM
 40
0.0
  9
$DIMTXT
 40
0.18
  9
$DIMCEN
 40
0.09
  9
$DIMTSZ
 40
0.0
  9
$DIMTOL
 70
     0
  9
$DIMLIM
 70
     0
  9
$DIMTIH
 70
     1
  9
$DIMTOH
 70
     1
  9
$DIMSE1
 70
     0
  9
$DIMSE2
 70
     0
  9
$DIMTAD
 70
     0
  9
$DIMZIN
 70
     0
  9
$DIMBLK
  1

  9
$DIMASO
 70
     1
  9
$DIMSHO
 70
     1
  9
$DIMPOST
  1

  9
$DIMAPOST
  1

  9
$DIMALT
 70
     0
  9
$DIMALTD
 70
     2
  9
$DIMALTF
 40
25.4
  9
$DIMLFAC
 40
1.0
  9
$DIMTOFL
 70
     0
  9
$DIMTVP
 40
0.0
  9
$DIMTIX
 70
     0
  9
$DIMSOXD
 70
     0
  9
$DIMSAH
 70
     0
  9
$DIMBLK1
  1

  9
$DIMBLK2
  1

  9
$DIMSTYLE
  2
Standard
  9
$DIMCLRD
 70
     0
  9
$DIMCLRE
 70
     0
  9
$DIMCLRT
 70
     0
  9
$DIMTFAC
 40
1.0
  9
$DIMGAP
 40
0.09
  9
$DIMJUST
 70
     0
  9
$DIMSD1
 70
     0
  9
$DIMSD2
 70
     0
  9
$DIMTOLJ
 70
     1
  9
$DIMTZIN
 70
     0
  9
$DIMALTZ
 70
     0
  9
$DIMALTTZ
 70
     0
  9
$DIMUPT
 70
     0
  9
$DIMDEC
 70
     4
  9
$DIMTDEC
 70
     4
  9
$DIMALTU
 70
     2
  9
$DIMALTTD
 70
     2
  9
$DIMTXSTY
  7
Standard
  9
$DIMAUNIT
 70
     0
  9
$DIMADEC
 70
     0
  9
$DIMALTRND
 40
0.0
  9
$DIMAZIN
 70
     0
  9
$DIMDSEP
 70
    46
  9
$DIMATFIT
 70
     3
  9
$DIMFRAC
 70
     0
  9
$DIMLDRBLK
  1

  9
$DIMLUNIT
 70
     2
  9
$DIMLWD
 70
    -2
  9
$DIMLWE
 70
    -2
  9
$DIMTMOVE
 70
     0
  9
$LUNITS
 70
     2
  9
$LUPREC
 70
     4
  9
$SKETCHINC
 40
0.1
  9
$FILLETRAD
 40
0.5
  9
$AUNITS
 70
     0
  9
$AUPREC
 70
     0
  9
$MENU
  1
.
  9
$ELEVATION
 40
0.0
  9
$PELEVATION
 40
0.0
  9
$THICKNESS
 40
0.0
  9
$LIMCHECK
 70
     0
  9
$CHAMFERA
 40
0.5
  9
$CHAMFERB
 40
0.5
  9
$CHAMFERC
 40
1.0
  9
$CHAMFERD
 40
0.0
  9
$SKPOLY
 70
     0
  9
$TDCREATE
 40
2458184.48059787
  9
$TDUCREATE
 40
2458184.438931204
  9
$TDUPDATE
 40
2458184.480598403
  9
$TDUUPDATE
 40
2458184.438931736
  9
$TDINDWG
 40
0.0000000116
  9
$TDUSRTIMER
 40
0.0000000116
  9
$USRTIMER
 70
     1
  9
$ANGBASE
 50
0.0
  9
$ANGDIR
 70
     0
  9
$PDMODE
 70
     0
  9
$PDSIZE
 40
0.0
  9
$PLINEWID
 40
0.0
  9
$SPLFRAME
 70
     0
  9
$SPLINETYPE
 70
     6
  9
$SPLINESEGS
 70
     8
  9
$HANDSEED
  5
29E
  9
$SURFTAB1
 70
     6
  9
$SURFTAB2
 70
     6
  9
$SURFTYPE
 70
     6
  9
$SURFU
 70
     6
  9
$SURFV
 70
     6
  9
$UCSBASE
  2

  9
$UCSNAME
  2

  9
$UCSORG
 10
0.0
 20
0.0
 30
0.0
  9
$UCSXDIR
 10
1.0
 20
0.0
 30
0.0
  9
$UCSYDIR
 10
0.0
 20
1.0
 30
0.0
  9
$UCSORTHOREF
  2

  9
$UCSORTHOVIEW
 70
     0
  9
$UCSORGTOP
 10
0.0
 20
0.0
 30
0.0
  9
$UCSORGBOTTOM
 10
0.0
 20
0.0
 30
0.0
  9
$UCSORGLEFT
 10
0.0
 20
0.0
 30
0.0
  9
$UCSORGRIGHT
 10
0.0
 20
0.0
 30
0.0
  9
$UCSORGFRONT
 10
0.0
 20
0.0
 30
0.0
  9
$UCSORGBACK
 10
0.0
 20
0.0
 30
0.0
  9
$PUCSBASE
  2

  9
$PUCSNAME
  2

  9
$PUCSORG
 10
0.0
 20
0.0
 30
0.0
  9
$PUCSXDIR
 10
1.0
 20
0.0
 30
0.0
  9
$PUCSYDIR
 10
0.0
 20
1.0
 30
0.0
  9
$PUCSORTHOREF
  2

  9
$PUCSORTHOVIEW
 70
     0
  9
$PUCSORGTOP
 10
0.0
 20
0.0
 30
0.0
  9
$PUCSORGBOTTOM
 10
0.0
 20
0.0
 30
0.0
  9
$PUCSORGLEFT
 10
0.0
 20
0.0
 30
0.0
  9
$PUCSORGRIGHT
 10
0.0
 20
0.0
 30
0.0
  9
$PUCSORGFRONT
 10
0.0
 20
0.0
 30
0.0
  9
$PUCSORGBACK
 10
0.0
 20
0.0
 30
0.0
  9
$USERI1
 70
     0
  9
$USERI2
 70
     0
  9
$USERI3
 70
     0
  9
$USERI4
 70
     0
  9
$USERI5
 70
     0
  9
$USERR1
 40
18.1
  9
$USERR2
 40
0.0
  9
$USERR3
 40
0.0
  9
$USERR4
 40
0.0
  9
$USERR5
 40
0.0
  9
$WORLDVIEW
 70
     1
  9
$SHADEDGE
 70
     3
  9
$SHADEDIF
 70
    70
  9
$TILEMODE
 70
     1
  9
$MAXACTVP
 70
    64
  9
$PINSBASE
 10
0.0
 20
0.0
 30
0.0
  9
$PLIMCHECK
 70
     0
  9
$PEXTMIN
 10
1.00000000000000E+20
 20
1.00000000000000E+20
 30
1.00000000000000E+20
  9
$PEXTMAX
 10
-1.00000000000000E+20
 20
-1.00000000000000E+20
 30
-1.00000000000000E+20
  9
$PLIMMIN
 10
0.0
 20
0.0
  9
$PLIMMAX
 10
12.0
 20
9.0
  9
$UNITMODE
 70
     0
  9
$VISRETAIN
 70
     1
  9
$PLINEGEN
 70
     0
  9
$PSLTSCALE
 70
     1
  9
$TREEDEPTH
 70
  3020
  9
$CMLSTYLE
  2
Standard
  9
$CMLJUST
 70
     0
  9
$CMLSCALE
 40
1.0
  9
$PROXYGRAPHICS
 70
     1
  9
$MEASUREMENT
 70
     1
  9
$CELWEIGHT
370
    -1
  9
$ENDCAPS
280
     0
  9
$JOINSTYLE
280
     0
  9
$LWDISPLAY
290
     0
  9
$INSUNITS
 70
     4
  9
$HYPERLINKBASE
  1

  9
$STYLESHEET
  1

  9
$XEDIT
290
     1
  9
$CEPSNTYPE
380
     0
  9
$PSTYLEMODE
290
     1
  9
$FINGERPRINTGUID
  2
{96AE4E1C-E4B8-4A43-BC8E-D4EB0D412317}
  9
$VERSIONGUID
  2
{FAEB1C32-E019-11D5-929B-00C0DF256EC4}
  9
$EXTNAMES
290
     1
  9
$PSVPSCALE
 40
0.0
  9
$OLESTARTUP
290
     0
  9
$SORTENTS
280
   127
  9
$INDEXCTL
280
     0
  9
$HIDETEXT
280
     1
  9
$XCLIPFRAME
290
     0
  9
$HALOGAP
280
     0
  9
$OBSCOLOR
 70
   257
  9
$OBSLTYPE
280
     0
  9
$INTERSECTIONDISPLAY
280
     0
  9
$INTERSECTIONCOLOR
 70
   257
  9
$DIMASSOC
280
     2
  9
$PROJECTNAME
  1

  0
ENDSEC
  0
SECTION
  2
CLASSES
  0
CLASS
  1
ACDBDICTIONARYWDFLT
  2
AcDbDictionaryWithDefault
  3
ObjectDBX Classes
 90
        0
 91
        4
280
     0
281
     0
  0
CLASS
  1
VISUALSTYLE
  2
AcDbVisualStyle
  3
ObjectDBX Classes
 90
     4095
 91
        4
280
     0
281
     0
  0
CLASS
  1
MATERIAL
  2
AcDbMaterial
  3
ObjectDBX Classes
 90
     1153
 91
        4
280
     0
281
     0
  0
ENDSEC
  0
SECTION
  2
TABLES
  0
TABLE
  2
VPORT
  5
8
330
0
100
AcDbSymbolTable
 70
     1
  0
VPORT
  5
29
330
8
100
AcDbSymbolTableRecord
100
AcDbViewportTableRecord
  2
*Active
 70
     0
 10
0.0
 20
0.0
 11
1.0
 21
1.0
 12
68.95000007738678
 22
447.4785833120841
 13
0.0
 23
0.0
 14
0.5
 24
0.5
 15
0.5
 25
0.5
 16
0.0
 26
0.0
 36
1.0
 17
0.0
 27
0.0
 37
0.0
 40
231.0000000000001
 41
1.60267857142857
 42
50.0
 43
0.0
 44
0.0
 50
0.0
 51
0.0
 71
     0
 72
   100
 73
     1
 74
     3
 75
     0
 76
     0
 77
     0
 78
     0
281
     0
 65
     1
110
0.0
120
0.0
130
0.0
111
1.0
121
0.0
131
0.0
112
0.0
122
1.0
132
0.0
 79
     0
146
0.0
  0
ENDTAB
  0
TABLE
  2
LTYPE
  5
5
330
0
100
AcDbSymbolTable
 70
     8
  0
LTYPE
  5
14
330
5
100
AcDbSymbolTableRecord
100
AcDbLinetypeTableRecord
  2
ByBlock
 70
     0
  3

 72
    65
 73
     0
 40
0.0
  0
LTYPE
  5
15
330
5
100
AcDbSymbolTableRecord
100
AcDbLinetypeTableRecord
  2
ByLayer
 70
     0
  3

 72
    65
 73
     0
 40
0.0
  0
LTYPE
  5
16
330
5
100
AcDbSymbolTableRecord
100
AcDbLinetypeTableRecord
  2
Continuous
 70
     0
  3
Solid line
 72
    65
 73
     0
 40
0.0
  0
LTYPE
  5
3F
330
5
100
AcDbSymbolTableRecord
100
AcDbLinetypeTableRecord
  2
DASHED
 70
     0
  3
Dashed
 72
    65
 73
     2
 40
15.0
 49
7.0
 74
     0
 49
-8.0
 74
     0
  0
LTYPE
  5
40
330
5
100
AcDbSymbolTableRecord
100
AcDbLinetypeTableRecord
  2
DOTTED
 70
     0
  3
Dotted
 72
    65
 73
     2
 40
1.0
 49
0.0
 74
     0
 49
-1.0
 74
     0
  0
LTYPE
  5
41
330
5
100
AcDbSymbolTableRecord
100
AcDbLinetypeTableRecord
  2
DOT_CENTER
 70
     0
  3
Dot_Center
 72
    65
 73
     4
 40
14.0
 49
12.0
 74
     0
 49
-1.0
 74
     0
 49
0.0
 74
     0
 49
-1.0
 74
     0
  0
LTYPE
  5
42
330
5
100
AcDbSymbolTableRecord
100
AcDbLinetypeTableRecord
  2
LONG_DASHED
 70
     0
  3
Long_Dashed
 72
    65
 73
     2
 40
15.0
 49
10.0
 74
     0
 49
-5.0
 74
     0
  0
LTYPE
  5
43
330
5
100
AcDbSymbolTableRecord
100
AcDbLinetypeTableRecord
  2
DASH_CENTER
 70
     0
  3
Dash_Center
 72
    65
 73
     4
 40
14.0
 49
11.0
 74
     0
 49
-1.0
 74
     0
 49
1.0
 74
     0
 49
-1.0
 74
     0
  0
LTYPE
  5
44
330
5
100
AcDbSymbolTableRecord
100
AcDbLinetypeTableRecord
  2
PHANTOM
 70
     0
  3
Phantom
 72
    65
 73
     6
 40
13.0
 49
10.0
 74
     0
 49
-1.0
 74
     0
 49
0.0
 74
     0
 49
-1.0
 74
     0
 49
0.0
 74
     0
 49
-1.0
 74
     0
  0
LTYPE
  5
45
330
5
100
AcDbSymbolTableRecord
100
AcDbLinetypeTableRecord
  2
CENTER_DASH_DASH
 70
     0
  3
Center_Dash_Dash
 72
    65
 73
     6
 40
14.0
 49
9.0
 74
     0
 49
-1.0
 74
     0
 49
1.0
 74
     0
 49
-1.0
 74
     0
 49
1.0
 74
     0
 49
-1.0
 74
     0
  0
ENDTAB
  0
TABLE
  2
LAYER
  5
2
330
0
100
AcDbSymbolTable
 70
     2
  0
LAYER
  5
10
330
2
100
AcDbSymbolTableRecord
100
AcDbLayerTableRecord
  2
0
 70
     0
 62
     7
  6
Continuous
370
    -3
390
F
  0
LAYER
  5
46
330
2
100
AcDbSymbolTableRecord
100
AcDbLayerTableRecord
  2
1
 70
     0
 62
     7
  6
Continuous
370
    -3
390
F
  0
ENDTAB
  0
TABLE
  2
STYLE
  5
3
330
0
100
AcDbSymbolTable
 70
     5
  0
STYLE
  5
11
330
3
100
AcDbSymbolTableRecord
100
AcDbTextStyleTableRecord
  2
Standard
 70
     0
 40
0.0
 41
1.0
 50
0.0
 71
     0
 42
0.2
  3
txt
  4

  0
STYLE
  5
B2
330
3
100
AcDbSymbolTableRecord
100
AcDbTextStyleTableRecord
  2
CONVERTER_11
 70
     0
 40
0.0
 41
0.9
 50
0.0
 71
     0
 42
0.2
  3
txt.shx
  4

  0
STYLE
  5
234
330
3
100
AcDbSymbolTableRecord
100
AcDbTextStyleTableRecord
  2
CONVERTER_12
 70
     0
 40
0.0
 41
0.81
 50
0.0
 71
     0
 42
0.2
  3
txt.shx
  4

  0
STYLE
  5
23A
330
3
100
AcDbSymbolTableRecord
100
AcDbTextStyleTableRecord
  2
CONVERTER_13
 70
     0
 40
0.0
 41
0.855
 50
0.0
 71
     0
 42
0.2
  3
txt.shx
  4

  0
STYLE
  5
23D
330
3
100
AcDbSymbolTableRecord
100
AcDbTextStyleTableRecord
  2
CONVERTER_14
 70
     0
 40
0.0
 41
0.72
 50
0.0
 71
     0
 42
0.2
  3
txt.shx
  4

  0
ENDTAB
  0
TABLE
  2
VIEW
  5
6
330
0
100
AcDbSymbolTable
 70
     0
  0
ENDTAB
  0
TABLE
  2
UCS
  5
7
330
0
100
AcDbSymbolTable
 70
     0
  0
ENDTAB
  0
TABLE
  2
APPID
  5
9
330
0
100
AcDbSymbolTable
 70
     1
  0
APPID
  5
12
330
9
100
AcDbSymbolTableRecord
100
AcDbRegAppTableRecord
  2
ACAD
 70
     0
  0
ENDTAB
  0
TABLE
  2
DIMSTYLE
  5
A
330
0
100
AcDbSymbolTable
 70
     4
100
AcDbDimStyleTable
  0
DIMSTYLE
105
27
330
A
100
AcDbSymbolTableRecord
100
AcDbDimStyleTableRecord
  2
Standard
 70
     0
178
     0
340
11
  0
DIMSTYLE
105
E0
102
{ACAD_REACTORS
330
E1
102
}
330
A
100
AcDbSymbolTableRecord
100
AcDbDimStyleTableRecord
  2
ME10_DIM_10
 70
     0
 41
3.5
 42
0.5
 44
1.5
 73
     0
 74
     0
 77
     1
 78
     8
140
3.5
147
2.0
172
     1
173
     1
174
     1
175
     1
176
     2
177
     2
178
     3
340
B2
  0
DIMSTYLE
105
130
102
{ACAD_REACTORS
330
131
102
}
330
A
100
AcDbSymbolTableRecord
100
AcDbDimStyleTableRecord
  2
ME10_DIM_11
 70
     0
 41
3.5
 42
0.5
 44
1.5
 73
     0
 74
     0
 77
     1
 78
     8
140
3.5
147
2.0
172
     1
173
     1
174
     1
175
     1
176
     2
177
     2
178
     3
340
B2
  0
DIMSTYLE
105
13B
102
{ACAD_REACTORS
330
13C
102
}
330
A
100
AcDbSymbolTableRecord
100
AcDbDimStyleTableRecord
  2
ME10_DIM_12
 70
     0
 41
3.5
 42
0.5
 44
1.5
 73
     0
 74
     0
 77
     1
 78
     8
140
3.5
147
2.0
172
     1
173
     1
174
     1
175
     1
176
     2
177
     2
178
     3
340
B2
  0
ENDTAB
  0
TABLE
  2
BLOCK_RECORD
  5
1
330
0
100
AcDbSymbolTable
 70
    20
  0
BLOCK_RECORD
  5
1F
330
1
100
AcDbSymbolTableRecord
100
AcDbBlockTableRecord
  2
*Model_Space
340
22
  0
BLOCK_RECORD
  5
1B
330
1
100
AcDbSymbolTableRecord
100
AcDbBlockTableRecord
  2
*Paper_Space
340
1E
  0
BLOCK_RECORD
  5
23
330
1
100
AcDbSymbolTableRecord
100
AcDbBlockTableRecord
  2
*Paper_Space0
340
26
  0
BLOCK_RECORD
  5
47
330
1
100
AcDbSymbolTableRecord
100
AcDbBlockTableRecord
  2
D-ST4-Select__1
340
0
102
{BLKREFS
331
4B
102
}
  0
BLOCK_RECORD
  5
4A
330
1
100
AcDbSymbolTableRecord
100
AcDbBlockTableRecord
  2
AllgSicht1
340
0
102
{BLKREFS
331
7D
102
}
  0
BLOCK_RECORD
  5
4E
330
1
100
AcDbSymbolTableRecord
100
AcDbBlockTableRecord
  2
D-ST4-Select__2
340
0
102
{BLKREFS
331
52
102
}
  0
BLOCK_RECORD
  5
51
330
1
100
AcDbSymbolTableRecord
100
AcDbBlockTableRecord
  2
Drfsicht1
340
0
102
{BLKREFS
331
7E
102
}
  0
BLOCK_RECORD
  5
55
330
1
100
AcDbSymbolTableRecord
100
AcDbBlockTableRecord
  2
D-ST4-Select__3
340
0
102
{BLKREFS
331
59
102
}
  0
BLOCK_RECORD
  5
58
330
1
100
AcDbSymbolTableRecord
100
AcDbBlockTableRecord
  2
Rckans1
340
0
102
{BLKREFS
331
7F
102
}
  0
BLOCK_RECORD
  5
5C
330
1
100
AcDbSymbolTableRecord
100
AcDbBlockTableRecord
  2
D-ST4-Select__4
340
0
102
{BLKREFS
331
60
102
}
  0
BLOCK_RECORD
  5
5F
330
1
100
AcDbSymbolTableRecord
100
AcDbBlockTableRecord
  2
SA_Links1
340
0
102
{BLKREFS
331
80
102
}
  0
BLOCK_RECORD
  5
63
330
1
100
AcDbSymbolTableRecord
100
AcDbBlockTableRecord
  2
D-ST4-Select__5
340
0
102
{BLKREFS
331
67
102
}
  0
BLOCK_RECORD
  5
66
330
1
100
AcDbSymbolTableRecord
100
AcDbBlockTableRecord
  2
SA_Rechts1
340
0
102
{BLKREFS
331
81
102
}
  0
BLOCK_RECORD
  5
6A
330
1
100
AcDbSymbolTableRecord
100
AcDbBlockTableRecord
  2
D-ST4-Select__6
340
0
102
{BLKREFS
331
6E
102
}
  0
BLOCK_RECORD
  5
6D
330
1
100
AcDbSymbolTableRecord
100
AcDbBlockTableRecord
  2
Vordans1
340
0
102
{BLKREFS
331
82
102
}
  0
BLOCK_RECORD
  5
71
330
1
100
AcDbSymbolTableRecord
100
AcDbBlockTableRecord
  2
_rahmen
340
0
102
{BLKREFS
331
78
102
}
  0
BLOCK_RECORD
  5
74
330
1
100
AcDbSymbolTableRecord
100
AcDbBlockTableRecord
  2
_punkt
340
0
102
{BLKREFS
331
79
102
}
  0
BLOCK_RECORD
  5
77
330
1
100
AcDbSymbolTableRecord
100
AcDbBlockTableRecord
  2
A4I_CS
340
0
102
{BLKREFS
331
83
102
}
  0
BLOCK_RECORD
  5
7C
330
1
100
AcDbSymbolTableRecord
100
AcDbBlockTableRecord
  2
1
340
0
102
{BLKREFS
331
86
102
}
  0
BLOCK_RECORD
  5
D5
330
1
100
AcDbSymbolTableRecord
100
AcDbBlockTableRecord
  2
*D17
340
0
  0
BLOCK_RECORD
  5
127
330
1
100
AcDbSymbolTableRecord
100
AcDbBlockTableRecord
  2
*D18
340
0
  0
BLOCK_RECORD
  5
132
330
1
100
AcDbSymbolTableRecord
100
AcDbBlockTableRecord
  2
*D19
340
0
  0
ENDTAB
  0
ENDSEC
  0
SECTION
  2
BLOCKS
  0
BLOCK
  5
20
330
1F
100
AcDbEntity
  8
0
100
AcDbBlockBegin
  2
*Model_Space
 70
     0
 10
0.0
 20
0.0
 30
0.0
  3
*Model_Space
  1

  0
ENDBLK
  5
21
330
1F
100
AcDbEntity
  8
0
100
AcDbBlockEnd
  0
BLOCK
  5
1C
330
1B
100
AcDbEntity
 67
     1
  8
0
100
AcDbBlockBegin
  2
*Paper_Space
 70
     0
 10
0.0
 20
0.0
 30
0.0
  3
*Paper_Space
  1

  0
ENDBLK
  5
1D
330
1B
100
AcDbEntity
 67
     1
  8
0
100
AcDbBlockEnd
  0
BLOCK
  5
24
330
23
100
AcDbEntity
  8
0
100
AcDbBlockBegin
  2
*Paper_Space0
 70
     0
 10
0.0
 20
0.0
 30
0.0
  3
*Paper_Space0
  1

  0
ENDBLK
  5
25
330
23
100
AcDbEntity
  8
0
100
AcDbBlockEnd
  0
BLOCK
  5
48
330
47
100
AcDbEntity
  8
0
100
AcDbBlockBegin
  2
D-ST4-Select__1
 70
     0
 10
104.7103779962984
 20
397.5907033150176
 30
0.0
  3
D-ST4-Select__1
  1

  0
LINE
  5
87
330
47
100
AcDbEntity
  8
0
  6
Continuous
 62
     7
100
AcDbLine
 10
154.2211980678497
 20
402.2399216476855
 30
0.0
 11
153.1211980678497
 21
401.2872937035226
 31
0.0
  0
LINE
  5
88
330
47
100
AcDbEntity
  8
0
  6
Continuous
 62
     7
100
AcDbLine
 10
154.2211980678497
 20
402.2399216476855
 30
0.0
 11
154.2211980678497
 21
400.507870840114
 31
0.0
  0
LINE
  5
89
330
47
100
AcDbEntity
  8
0
  6
Continuous
 62
     7
100
AcDbLine
 10
154.2211980678497
 20
400.507870840114
 30
0.0
 11
153.1211980678497
 21
399.5552428959511
 31
0.0
  0
LINE
  5
8A
330
47
100
AcDbEntity
  8
0
  6
Continuous
 62
     7
100
AcDbLine
 10
154.2211980678497
 20
400.507870840114
 30
0.0
 11
152.0265628031856
 21
398.5433312591804
 31
0.0
  0
LINE
  5
8B
330
47
100
AcDbEntity
  8
0
  6
Continuous
 62
     7
100
AcDbLine
 10
153.1211980678497
 20
399.5552428959511
 30
0.0
 11
153.1211980678497
 21
401.2872937035226
 31
0.0
  0
LINE
  5
8C
330
47
100
AcDbEntity
  8
0
  6
Continuous
 62
     7
100
AcDbLine
 10
107.5079559952645
 20
436.5527840513629
 30
0.0
 11
106.4079559952645
 21
435.6001561072
 31
0.0
  0
LINE
  5
8D
330
47
100
AcDbEntity
  8
0
  6
Continuous
 62
     7
100
AcDbLine
 10
120.76582673954
 20
431.5131308645202
 30
0.0
 11
120.7158267395398
 21
431.4698295943312
 31
0.0
  0
LINE
  5
8E
330
47
100
AcDbEntity
  8
0
  6
Continuous
 62
     7
100
AcDbLine
 10
106.4079559952645
 20
435.6001561072
 30
0.0
 11
120.7158267395398
 21
431.4698295943312
 31
0.0
  0
LINE
  5
8F
330
47
100
AcDbEntity
  8
0
  6
Continuous
 62
     7
100
AcDbLine
 10
104.7103779962985
 20
429.7547573226001
 30
0.0
 11
106.4079559952645
 21
435.6001561072
 31
0.0
  0
LINE
  5
90
330
47
100
AcDbEntity
  8
0
  6
Continuous
 62
     7
100
AcDbLine
 10
121.8158267395398
 20
432.422457538494
 30
0.0
 11
107.5079559952645
 21
436.5527840513629
 31
0.0
  0
LINE
  5
91
330
47
100
AcDbEntity
  8
0
  6
Continuous
 62
     7
100
AcDbLine
 10
150.9265628031857
 20
397.5907033150176
 30
0.0
 11
152.0265628031856
 21
398.5433312591804
 31
0.0
  0
LINE
  5
92
330
47
100
AcDbEntity
  8
0
  6
Continuous
 62
     7
100
AcDbLine
 10
150.9265628031857
 20
397.5907033150176
 30
0.0
 11
153.1211980678497
 21
399.5552428959511
 31
0.0
  0
LINE
  5
93
330
47
100
AcDbEntity
  8
0
  6
Continuous
 62
     7
100
AcDbLine
 10
152.5236200688829
 20
423.5578811660362
 30
0.0
 11
151.4236200688829
 21
422.6052532218733
 31
0.0
  0
LINE
  5
94
330
47
100
AcDbEntity
  8
0
  6
Continuous
 62
     7
100
AcDbLine
 10
153.1211980678486
 20
415.7797573226013
 30
0.0
 11
151.4236200688829
 21
422.6052532218733
 31
0.0
  0
LINE
  5
95
330
47
100
AcDbEntity
  8
0
  6
Continuous
 62
     7
100
AcDbLine
 10
154.2211980678486
 20
416.7323852667642
 30
0.0
 11
153.1211980678486
 21
415.7797573226013
 31
0.0
  0
LINE
  5
96
330
47
100
AcDbEntity
  8
0
  6
Continuous
 62
     7
100
AcDbLine
 10
154.2211980678486
 20
416.7323852667642
 30
0.0
 11
152.5236200688829
 21
423.5578811660362
 31
0.0
  0
LINE
  5
97
330
47
100
AcDbEntity
  8
0
  6
Continuous
 62
     7
100
AcDbLine
 10
154.2211980678486
 20
412.6322264931017
 30
0.0
 11
154.2211980678486
 21
416.7323852667642
 31
0.0
  0
LINE
  5
98
330
47
100
AcDbEntity
  8
0
  6
Continuous
 62
     7
100
AcDbLine
 10
153.1211980678486
 20
411.6795985489388
 30
0.0
 11
153.1211980678486
 21
415.7797573226013
 31
0.0
  0
LINE
  5
99
330
47
100
AcDbEntity
  8
0
  6
Continuous
 62
     7
100
AcDbLine
 10
153.1211980678486
 20
411.6795985489388
 30
0.0
 11
154.2211980678486
 21
412.6322264931017
 31
0.0
  0
LINE
  5
9A
330
47
100
AcDbEntity
  8
0
  6
Continuous
 62
     7
100
AcDbLine
 10
129.988507988865
 20
430.0632076788446
 30
0.0
 11
129.8385079888461
 21
429.9333038682823
 31
0.0
  0
LINE
  5
9B
330
47
100
AcDbEntity
  8
0
  6
Continuous
 62
     7
100
AcDbLine
 10
128.266268979325
 20
427.8179614781195
 30
0.0
 11
128.266268979325
 21
424.0940522418036
 31
0.0
  0
LINE
  5
9C
330
47
100
AcDbEntity
  8
0
  6
Continuous
 62
     7
100
AcDbLine
 10
128.8885079888381
 20
429.1105797346895
 30
0.0
 11
128.9385079888379
 21
429.1538810048787
 31
0.0
  0
LINE
  5
9D
330
47
100
AcDbEntity
  8
0
  6
Continuous
 62
     7
100
AcDbLine
 10
128.8885079888381
 20
429.1105797346895
 30
0.0
 11
128.266268979325
 21
427.8179614781195
 31
0.0
  0
LINE
  5
9E
330
47
100
AcDbEntity
  8
0
  6
Continuous
 62
     7
100
AcDbLine
 10
128.8885079888381
 20
429.1105797346895
 30
0.0
 11
151.4236200688829
 21
422.6052532218733
 31
0.0
  0
LINE
  5
9F
330
47
100
AcDbEntity
  8
0
  6
Continuous
 62
     7
100
AcDbLine
 10
152.5236200688829
 20
423.5578811660362
 30
0.0
 11
129.988507988865
 21
430.0632076788446
 31
0.0
  0
LINE
  5
A0
330
47
100
AcDbEntity
  8
0
  6
Continuous
 62
     7
100
AcDbLine
 10
121.3880657490497
 20
429.8612627482628
 30
0.0
 11
121.3880657490497
 21
426.1373535119927
 31
0.0
  0
LINE
  5
A1
330
47
100
AcDbEntity
  8
0
  6
Continuous
 62
     7
100
AcDbLine
 10
121.8158267395398
 20
432.422457538494
 30
0.0
 11
121.6658267395398
 21
432.2925537279262
 31
0.0
  0
LINE
  5
A2
330
47
100
AcDbEntity
  8
0
  6
Continuous
 62
     7
100
AcDbLine
 10
121.3880657490497
 20
426.1373535119927
 30
0.0
 11
121.3380657490498
 21
426.0940522418035
 31
0.0
  0
LINE
  5
A3
330
47
100
AcDbEntity
  8
0
  6
Continuous
 62
     7
100
AcDbLine
 10
121.3380657490498
 20
426.0940522418035
 30
0.0
 11
121.3380657490497
 21
429.8179614780736
 31
0.0
  0
LINE
  5
A4
330
47
100
AcDbEntity
  8
0
  6
Continuous
 62
     7
100
AcDbLine
 10
104.7103779962985
 20
429.7547573226001
 30
0.0
 11
104.7103779962984
 21
425.6545985489332
 31
0.0
  0
LINE
  5
A5
330
47
100
AcDbEntity
  8
0
  6
Continuous
 62
     7
100
AcDbLine
 10
104.7103779962985
 20
417.8603699148733
 30
0.0
 11
104.7103779962985
 21
410.9321666846045
 31
0.0
  0
LINE
  5
A6
330
47
100
AcDbEntity
  8
0
  6
Continuous
 62
     7
100
AcDbLine
 10
121.8890313288938
 20
432.2281201130523
 30
0.0
 11
121.8158267395398
 21
432.422457538494
 31
0.0
  0
LINE
  5
A7
330
47
100
AcDbEntity
  8
0
  6
Continuous
 62
     7
100
AcDbLine
 10
121.3880657490497
 20
426.1373535119927
 30
0.0
 11
128.266268979325
 21
424.1517872687226
 31
0.0
  0
LINE
  5
A8
330
47
100
AcDbEntity
  8
0
  6
Continuous
 62
     7
100
AcDbLine
 10
121.3380657490497
 20
429.8179614780736
 30
0.0
 11
120.7158267395398
 21
431.4698295943312
 31
0.0
  0
LINE
  5
A9
330
47
100
AcDbEntity
  8
0
  6
Continuous
 62
     7
100
AcDbLine
 10
121.3880657490497
 20
429.8612627482628
 30
0.0
 11
121.3380657490497
 21
429.8179614780736
 31
0.0
  0
LINE
  5
AA
330
47
100
AcDbEntity
  8
0
  6
Continuous
 62
     7
100
AcDbLine
 10
120.76582673954
 20
431.5131308645202
 30
0.0
 11
121.3880657490497
 21
429.8612627482628
 31
0.0
  0
LINE
  5
AB
330
47
100
AcDbEntity
  8
0
  6
Continuous
 62
     7
100
AcDbLine
 10
128.266268979325
 20
424.0940522418036
 30
0.0
 11
121.3380657490498
 21
426.0940522418035
 31
0.0
  0
LINE
  5
AC
330
47
100
AcDbEntity
  8
0
  6
Continuous
 62
     7
100
AcDbLine
 10
120.76582673954
 20
431.5131308645202
 30
0.0
 11
128.9385079888379
 21
429.1538810048787
 31
0.0
  0
LINE
  5
AD
330
47
100
AcDbEntity
  8
0
  6
Continuous
 62
     7
100
AcDbLine
 10
129.8385079888461
 20
429.9333038682823
 30
0.0
 11
121.6658267395398
 21
432.2925537279262
 31
0.0
  0
LINE
  5
AE
330
47
100
AcDbEntity
  8
0
  6
Continuous
 62
     7
100
AcDbLine
 10
150.9265628031857
 20
397.5907033150176
 30
0.0
 11
104.7103779962985
 21
410.9321666846045
 31
0.0
  0
SPLINE
  5
AF
330
47
100
AcDbEntity
  8
0
  6
Continuous
 62
     7
100
AcDbSpline
210
0.0
220
0.0
230
1.0
 70
     8
 71
     3
 72
    13
 73
     9
 74
     7
 42
0.000000001
 43
0.0000000001
 44
0.00000001
 40
0.0
 40
0.0
 40
0.0
 40
0.0
 40
1.618800875635205
 40
3.296662960635538
 40
5.04204580682067
 40
6.857713221237788
 40
8.741157514550123
 40
10.68531582207254
 40
10.68531582207254
 40
10.68531582207254
 40
10.68531582207254
 10
153.1211980678486
 20
411.6795985489388
 30
0.0
 10
152.9042913808268
 20
411.1841778467821
 30
0.0
 10
152.4625642791816
 20
410.1752612393924
 30
0.0
 10
152.116942373365
 20
408.5195457171593
 30
0.0
 10
151.9944901280651
 20
406.7731164260315
 30
0.0
 10
152.1254030553025
 20
404.9579514250893
 30
0.0
 10
152.4823942877898
 20
403.1044030694997
 30
0.0
 10
152.9060235791036
 20
401.8993683055408
 30
0.0
 10
153.1211980678497
 20
401.2872937035226
 30
0.0
 11
153.1211980678486
 21
411.6795985489388
 31
0.0
 11
152.5224996172357
 21
410.1755784540739
 31
0.0
 11
152.1587214265271
 21
408.537626497601
 31
0.0
 11
152.0366979824844
 21
406.7965143343413
 31
0.0
 11
152.1587214265274
 21
404.9849519028162
 31
0.0
 11
152.5224996172365
 21
403.1369725100122
 31
0.0
 11
153.1211980678497
 21
401.2872937035226
 31
0.0
  0
SPLINE
  5
B0
330
47
100
AcDbEntity
  8
0
  6
Continuous
 62
     7
100
AcDbSpline
210
0.0
220
0.0
230
1.0
 70
     8
 71
     3
 72
    13
 73
     9
 74
     7
 42
0.000000001
 43
0.0000000001
 44
0.00000001
 40
0.0
 40
0.0
 40
0.0
 40
0.0
 40
1.618800875635226
 40
3.296662960635565
 40
5.042045806820529
 40
6.85771322123776
 40
8.741157514550034
 40
10.68531582207252
 40
10.68531582207252
 40
10.68531582207252
 40
10.68531582207252
 10
154.2211980678486
 20
412.6322264931017
 30
0.0
 10
154.0042913808269
 20
412.1368057909449
 30
0.0
 10
153.5625642791817
 20
411.1278891835552
 30
0.0
 10
153.2169423733651
 20
409.4721736613222
 30
0.0
 10
153.0944901280652
 20
407.7257443701944
 30
0.0
 10
153.2254030553025
 20
405.9105793692523
 30
0.0
 10
153.5823942877898
 20
404.0570310136625
 30
0.0
 10
154.0060235791036
 20
402.8519962497038
 30
0.0
 10
154.2211980678497
 20
402.2399216476855
 30
0.0
 11
154.2211980678486
 21
412.6322264931017
 31
0.0
 11
153.6224996172358
 21
411.1282063982367
 31
0.0
 11
153.2587214265271
 21
409.4902544417638
 31
0.0
 11
153.1366979824844
 21
407.7491422785043
 31
0.0
 11
153.2587214265275
 21
405.9375798469791
 31
0.0
 11
153.6224996172365
 21
404.0896004541752
 31
0.0
 11
154.2211980678497
 21
402.2399216476855
 31
0.0
  0
SPLINE
  5
B1
330
47
100
AcDbEntity
  8
0
  6
Continuous
 62
     7
100
AcDbSpline
210
0.0
220
0.0
230
1.0
 70
     8
 71
     3
 72
    11
 73
     7
 74
     5
 42
0.000000001
 43
0.0000000001
 44
0.00000001
 40
0.0
 40
0.0
 40
0.0
 40
0.0
 40
1.851422095563228
 40
3.785240840661615
 40
5.80567470265263
 40
7.908935340360708
 40
7.908935340360708
 40
7.908935340360708
 40
7.908935340360708
 10
104.7103779962985
 20
417.8603699148733
 30
0.0
 10
104.8812196884326
 20
418.4550860092531
 30
0.0
 10
105.2305062853892
 20
419.6709857551461
 30
0.0
 10
105.3518395504979
 20
421.6146287971278
 30
0.0
 10
105.2138785451327
 20
423.6369770105144
 30
0.0
 10
104.8804439262033
 20
424.9731123548527
 30
0.0
 10
104.7103779962984
 20
425.6545985489332
 30
0.0
 11
104.7103779962985
 21
417.8603699148733
 31
0.0
 11
105.1582670336804
 21
419.6567994821717
 31
0.0
 11
105.3087253216713
 21
421.5847562372169
 31
0.0
 11
105.1582670336804
 21
423.5995801253353
 31
0.0
 11
104.7103779962984
 21
425.6545985489332
 31
0.0
  0
ENDBLK
  5
49
330
47
100
AcDbEntity
  8
0
100
AcDbBlockEnd
  0
BLOCK
  5
4C
330
4A
100
AcDbEntity
  8
0
100
AcDbBlockBegin
  2
AllgSicht1
 70
     0
 10
129.4657883193759
 20
416.9999999999732
 30
0.0
  3
AllgSicht1
  1

  0
INSERT
  5
4B
330
4A
100
AcDbEntity
  8
0
100
AcDbBlockReference
  2
D-ST4-Select__1
 10
104.7103779962984
 20
397.5907033150176
 30
0.0
  0
MTEXT
  5
B3
330
4A
100
AcDbEntity
  8
1
 62
     6
100
AcDbMText
 10
129.4657883193741
 20
391.9571667862156
 30
0.0
 40
5.0
 41
0.0
 71
     2
 72
     1
  1
 
  7
CONVERTER_11
 73
     1
 44
1.32052821128451
  0
ENDBLK
  5
4D
330
4A
100
AcDbEntity
  8
0
100
AcDbBlockEnd
  0
BLOCK
  5
4F
330
4E
100
AcDbEntity
  8
0
100
AcDbBlockBegin
  2
D-ST4-Select__2
 70
     0
 10
-2.95000034550328
 20
427.9000000238415
 30
0.0
  3
D-ST4-Select__2
  1

  0
LINE
  5
B4
330
4E
100
AcDbEntity
  8
0
  6
Continuous
 62
     7
100
AcDbLine
 10
24.24999965460043
 20
429.8000000238415
 30
0.0
 11
24.24999965460043
 21
430.1000000238415
 31
0.0
  0
LINE
  5
B5
330
4E
100
AcDbEntity
  8
0
  6
Continuous
 62
     7
100
AcDbLine
 10
24.24999965460046
 20
428.0000000238415
 30
0.0
 11
24.24999965460046
 21
427.9000000238415
 31
0.0
  0
LINE
  5
B6
330
4E
100
AcDbEntity
  8
0
  6
Continuous
 62
     7
100
AcDbLine
 10
24.96849937389507
 20
429.8000000238415
 30
0.0
 11
24.24999965460043
 21
429.8000000238415
 31
0.0
  0
LINE
  5
B7
330
4E
100
AcDbEntity
  8
0
  6
Continuous
 62
     7
100
AcDbLine
 10
50.98980542515032
 20
430.1000000238415
 30
0.0
 11
50.98980542515032
 21
427.9000000238415
 31
0.0
  0
LINE
  5
B8
330
4E
100
AcDbEntity
  8
0
  6
Continuous
 62
     7
100
AcDbLine
 10
52.94999965449672
 20
427.9000000238415
 30
0.0
 11
50.98980542515032
 21
427.9000000238415
 31
0.0
  0
LINE
  5
B9
330
4E
100
AcDbEntity
  8
0
  6
Continuous
 62
     7
100
AcDbLine
 10
-0.98980611615642
 20
427.9000000238415
 30
0.0
 11
15.53149993531907
 21
427.9000000238415
 31
0.0
  0
LINE
  5
BA
330
4E
100
AcDbEntity
  8
0
  6
Continuous
 62
     7
100
AcDbLine
 10
52.94999965449672
 20
430.1000000238415
 30
0.0
 11
52.94999965449672
 21
427.9000000238415
 31
0.0
  0
LINE
  5
BB
330
4E
100
AcDbEntity
  8
0
  6
Continuous
 62
     7
100
AcDbLine
 10
16.2499996546007
 20
428.0000000238414
 30
0.0
 11
16.24999965460067
 21
427.9000000238415
 31
0.0
  0
LINE
  5
BC
330
4E
100
AcDbEntity
  8
0
  6
Continuous
 62
     7
100
AcDbLine
 10
16.24999965460064
 20
429.8000000238414
 30
0.0
 11
16.24999965460068
 21
430.1000000238415
 31
0.0
  0
LINE
  5
BD
330
4E
100
AcDbEntity
  8
0
  6
Continuous
 62
     7
100
AcDbLine
 10
16.24999965460064
 20
429.8000000238414
 30
0.0
 11
15.53149993531909
 21
429.8000000238413
 31
0.0
  0
LINE
  5
BE
330
4E
100
AcDbEntity
  8
0
  6
Continuous
 62
     7
100
AcDbLine
 10
16.24999965460068
 20
430.1000000238415
 30
0.0
 11
15.53149993531905
 21
430.1000000238415
 31
0.0
  0
LINE
  5
BF
330
4E
100
AcDbEntity
  8
0
  6
Continuous
 62
     7
100
AcDbLine
 10
24.96849937391681
 20
430.1000000238415
 30
0.0
 11
24.24999965460043
 21
430.1000000238415
 31
0.0
  0
LINE
  5
C0
330
4E
100
AcDbEntity
  8
0
  6
Continuous
 62
     7
100
AcDbLine
 10
24.24999965460043
 20
430.1000000238415
 30
0.0
 11
16.24999965460068
 21
430.1000000238415
 31
0.0
  0
LINE
  5
C1
330
4E
100
AcDbEntity
  8
0
  6
Continuous
 62
     7
100
AcDbLine
 10
24.24999965460043
 20
429.8000000238415
 30
0.0
 11
16.24999965460064
 21
429.8000000238414
 31
0.0
  0
LINE
  5
C2
330
4E
100
AcDbEntity
  8
0
  6
Continuous
 62
     7
100
AcDbLine
 10
24.96849937391681
 20
430.1000000238415
 30
0.0
 11
24.96849937389507
 21
429.8000000238415
 31
0.0
  0
LINE
  5
C3
330
4E
100
AcDbEntity
  8
0
  6
Continuous
 62
     7
100
AcDbLine
 10
24.96849937388583
 20
427.9000000238415
 30
0.0
 11
24.96849937388554
 21
428.0000000238415
 31
0.0
  0
LINE
  5
C4
330
4E
100
AcDbEntity
  8
0
  6
Continuous
 62
     7
100
AcDbLine
 10
52.94999965449672
 20
430.1000000238415
 30
0.0
 11
50.98980542515032
 21
430.1000000238415
 31
0.0
  0
LINE
  5
C5
330
4E
100
AcDbEntity
  8
0
  6
Continuous
 62
     7
100
AcDbLine
 10
50.98980542515032
 20
430.1000000238415
 30
0.0
 11
24.96849937391681
 21
430.1000000238415
 31
0.0
  0
LINE
  5
C6
330
4E
100
AcDbEntity
  8
0
  6
Continuous
 62
     7
100
AcDbLine
 10
15.53149993531935
 20
428.0000000238413
 30
0.0
 11
16.2499996546007
 21
428.0000000238414
 31
0.0
  0
LINE
  5
C7
330
4E
100
AcDbEntity
  8
0
  6
Continuous
 62
     7
100
AcDbLine
 10
24.24999965460046
 20
428.0000000238415
 30
0.0
 11
24.96849937388554
 21
428.0000000238415
 31
0.0
  0
LINE
  5
C8
330
4E
100
AcDbEntity
  8
0
  6
Continuous
 62
     7
100
AcDbLine
 10
16.24999965460067
 20
427.9000000238415
 30
0.0
 11
15.53149993531907
 21
427.9000000238415
 31
0.0
  0
LINE
  5
C9
330
4E
100
AcDbEntity
  8
0
  6
Continuous
 62
     7
100
AcDbLine
 10
24.96849937388583
 20
427.9000000238415
 30
0.0
 11
24.24999965460046
 21
427.9000000238415
 31
0.0
  0
LINE
  5
CA
330
4E
100
AcDbEntity
  8
0
  6
Continuous
 62
     7
100
AcDbLine
 10
24.24999965460046
 20
427.9000000238415
 30
0.0
 11
16.24999965460067
 21
427.9000000238415
 31
0.0
  0
LINE
  5
CB
330
4E
100
AcDbEntity
  8
0
  6
Continuous
 62
     7
100
AcDbLine
 10
16.2499996546007
 20
428.0000000238414
 30
0.0
 11
24.24999965460046
 21
428.0000000238415
 31
0.0
  0
LINE
  5
CC
330
4E
100
AcDbEntity
  8
0
  6
Continuous
 62
     7
100
AcDbLine
 10
-0.98980611615642
 20
430.1000000238415
 30
0.0
 11
-2.95000034550328
 21
430.1000000238415
 31
0.0
  0
LINE
  5
CD
330
4E
100
AcDbEntity
  8
0
  6
Continuous
 62
     7
100
AcDbLine
 10
-2.95000034550328
 20
430.1000000238415
 30
0.0
 11
-2.95000034550328
 21
427.9000000238415
 31
0.0
  0
LINE
  5
CE
330
4E
100
AcDbEntity
  8
0
  6
Continuous
 62
     7
100
AcDbLine
 10
-2.95000034550328
 20
427.9000000238415
 30
0.0
 11
-0.98980611615642
 21
427.9000000238415
 31
0.0
  0
LINE
  5
CF
330
4E
100
AcDbEntity
  8
0
  6
Continuous
 62
     7
100
AcDbLine
 10
15.53149993531905
 20
430.1000000238415
 30
0.0
 11
15.53149993531909
 21
429.8000000238413
 31
0.0
  0
LINE
  5
D0
330
4E
100
AcDbEntity
  8
0
  6
Continuous
 62
     7
100
AcDbLine
 10
15.53149993531935
 20
428.0000000238413
 30
0.0
 11
15.53149993531907
 21
427.9000000238415
 31
0.0
  0
LINE
  5
D1
330
4E
100
AcDbEntity
  8
0
  6
Continuous
 62
     7
100
AcDbLine
 10
-0.98980611615642
 20
430.1000000238415
 30
0.0
 11
-0.98980611615642
 21
427.9000000238415
 31
0.0
  0
LINE
  5
D2
330
4E
100
AcDbEntity
  8
0
  6
Continuous
 62
     7
100
AcDbLine
 10
15.53149993531905
 20
430.1000000238415
 30
0.0
 11
-0.98980611615642
 21
430.1000000238415
 31
0.0
  0
LINE
  5
D3
330
4E
100
AcDbEntity
  8
0
  6
Continuous
 62
     7
100
AcDbLine
 10
24.96849937388583
 20
427.9000000238415
 30
0.0
 11
50.98980542515032
 21
427.9000000238415
 31
0.0
  0
ENDBLK
  5
50
330
4E
100
AcDbEntity
  8
0
100
AcDbBlockEnd
  0
BLOCK
  5
53
330
51
100
AcDbEntity
  8
0
100
AcDbBlockBegin
  2
Drfsicht1
 70
     0
 10
25.00000000001
 20
428.9999999999997
 30
0.0
  3
Drfsicht1
  1

  0
INSERT
  5
52
330
51
100
AcDbEntity
  8
0
100
AcDbBlockReference
  2
D-ST4-Select__2
 10
-2.95000034550328
 20
427.9000000238415
 30
0.0
  0
MTEXT
  5
D4
330
51
100
AcDbEntity
  8
1
 62
     6
100
AcDbMText
 10
25.00000000001
 20
422.8999999761581
 30
0.0
 40
5.0
 41
0.0
 71
     2
 72
     1
  1
 
  7
CONVERTER_11
 73
     1
 44
1.32052821128451
  0
DIMENSION
  5
E1
330
51
100
AcDbEntity
  8
1
100
AcDbDimension
  2
*D17
 10
-11.9517259256235
 20
430.1000000238416
 30
0.0
 11
-15.8767259256235
 21
429.9355938926199
 31
0.0
 70
    33
  1
<>
 71
     5
 42
-1.0
 53
90.0
  3
ME10_DIM_10
100
AcDbAlignedDimension
 13
-2.95000034550328
 23
427.9000000238415
 33
0.0
 14
-2.95000034550328
 24
430.1000000238415
 34
0.0
  0
ENDBLK
  5
54
330
51
100
AcDbEntity
  8
0
100
AcDbBlockEnd
  0
BLOCK
  5
56
330
55
100
AcDbEntity
  8
0
100
AcDbBlockBegin
  2
D-ST4-Select__3
 70
     0
 10
108.9499999640374
 20
460.0999998379589
 30
0.0
  3
D-ST4-Select__3
  1

  0
LINE
  5
E2
330
55
100
AcDbEntity
  8
0
  6
Continuous
 62
     7
100
AcDbLine
 10
146.3684996832164
 20
489.1499998379524
 30
0.0
 11
162.8898057346918
 21
489.1499998379524
 31
0.0
  0
LINE
  5
E3
330
55
100
AcDbEntity
  8
0
  6
Continuous
 62
     7
100
AcDbLine
 10
136.9315002446186
 20
489.1499998379524
 30
0.0
 11
146.3684996832164
 21
489.1499998379524
 31
0.0
  0
LINE
  5
E4
330
55
100
AcDbEntity
  8
0
  6
Continuous
 62
     7
100
AcDbLine
 10
136.9315002446186
 20
489.1499998379524
 30
0.0
 11
137.649999963935
 21
487.4499998380012
 31
0.0
  0
LINE
  5
E5
330
55
100
AcDbEntity
  8
0
  6
Continuous
 62
     7
100
AcDbLine
 10
137.649999963935
 20
487.4499998380012
 30
0.0
 11
137.649999963935
 21
483.1499998379518
 31
0.0
  0
LINE
  5
E6
330
55
100
AcDbEntity
  8
0
  6
Continuous
 62
     7
100
AcDbLine
 10
110.9101941933851
 20
489.1499998379524
 30
0.0
 11
136.9315002446186
 21
489.1499998379524
 31
0.0
  0
LINE
  5
E7
330
55
100
AcDbEntity
  8
0
  6
Continuous
 62
     7
100
AcDbLine
 10
108.9499999640387
 20
481.8344553813462
 30
0.0
 11
110.9101941933851
 21
489.1499998379524
 31
0.0
  0
LINE
  5
E8
330
55
100
AcDbEntity
  8
0
  6
Continuous
 62
     7
100
AcDbLine
 10
145.6499999639348
 20
483.1499998379518
 30
0.0
 11
145.6499999639348
 21
487.4499998379484
 31
0.0
  0
LINE
  5
E9
330
55
100
AcDbEntity
  8
0
  6
Continuous
 62
     7
100
AcDbLine
 10
145.6499999639348
 20
487.4499998379484
 30
0.0
 11
146.3684996832164
 21
489.1499998379524
 31
0.0
  0
LINE
  5
EA
330
55
100
AcDbEntity
  8
0
  6
Continuous
 62
     7
100
AcDbLine
 10
108.9499999640374
 20
465.0999998379547
 30
0.0
 11
108.9499999640374
 21
463.0999998379516
 31
0.0
  0
LINE
  5
EB
330
55
100
AcDbEntity
  8
0
  6
Continuous
 62
     7
100
AcDbLine
 10
164.8499999640387
 20
468.0999998379513
 30
0.0
 11
164.8499999640387
 21
460.0999998379589
 31
0.0
  0
LINE
  5
EC
330
55
100
AcDbEntity
  8
0
  6
Continuous
 62
     7
100
AcDbLine
 10
164.8499999640387
 20
460.0999998379589
 30
0.0
 11
111.4841464856911
 21
460.0999998379589
 31
0.0
  0
LINE
  5
ED
330
55
100
AcDbEntity
  8
0
  6
Continuous
 62
     7
100
AcDbLine
 10
108.9499999640374
 20
463.0999998379516
 30
0.0
 11
111.4841464856911
 21
460.0999998379589
 31
0.0
  0
LINE
  5
EE
330
55
100
AcDbEntity
  8
0
  6
Continuous
 62
     7
100
AcDbLine
 10
137.649999963935
 20
483.1499998379518
 30
0.0
 11
145.6499999639348
 21
483.1499998379518
 31
0.0
  0
LINE
  5
EF
330
55
100
AcDbEntity
  8
0
  6
Continuous
 62
     7
100
AcDbLine
 10
108.9499999640387
 20
477.0999998379577
 30
0.0
 11
108.9499999640387
 21
481.8344553813462
 31
0.0
  0
LINE
  5
F0
330
55
100
AcDbEntity
  8
0
  6
Continuous
 62
     7
100
AcDbLine
 10
164.8499999640387
 20
481.8344553813448
 30
0.0
 11
164.8499999640387
 21
477.0999998379513
 31
0.0
  0
LINE
  5
F1
330
55
100
AcDbEntity
  8
0
  6
Continuous
 62
     7
100
AcDbLine
 10
162.8898057346918
 20
489.1499998379524
 30
0.0
 11
164.8499999640387
 21
481.8344553813448
 31
0.0
  0
ARC
  5
F2
330
55
100
AcDbEntity
  8
0
  6
Continuous
 62
     7
100
AcDbCircle
 10
179.1590879852929
 20
472.5999998379513
 30
0.0
 40
15.00000000000002
100
AcDbArc
 50
162.542396876278
 51
197.4576031237221
  0
ARC
  5
F3
330
55
100
AcDbEntity
  8
0
  6
Continuous
 62
     7
100
AcDbCircle
 10
95.2022728791712
 20
471.0999998379576
 30
0.0
 40
14.99999999999995
100
AcDbArc
 50
336.421821521786
 51
23.57817847820208
  0
ENDBLK
  5
57
330
55
100
AcDbEntity
  8
0
100
AcDbBlockEnd
  0
BLOCK
  5
5A
330
58
100
AcDbEntity
  8
0
100
AcDbBlockBegin
  2
Rckans1
 70
     0
 10
136.8999996185254
 20
474.6250003575979
 30
0.0
  3
Rckans1
  1

  0
INSERT
  5
59
330
58
100
AcDbEntity
  8
0
100
AcDbBlockReference
  2
D-ST4-Select__3
 10
108.9499999640374
 20
460.0999998379589
 30
0.0
  0
MTEXT
  5
F4
330
58
100
AcDbEntity
  8
1
 62
     6
100
AcDbMText
 10
136.8999996185254
 20
455.1000000238118
 30
0.0
 40
5.0
 41
0.0
 71
     2
 72
     1
  1
 
  7
CONVERTER_11
 73
     1
 44
1.32052821128451
  0
ENDBLK
  5
5B
330
58
100
AcDbEntity
  8
0
100
AcDbBlockEnd
  0
BLOCK
  5
5D
330
5C
100
AcDbEntity
  8
0
100
AcDbBlockBegin
  2
D-ST4-Select__4
 70
     0
 10
78.8499997854253
 20
460.0999998379588
 30
0.0
  3
D-ST4-Select__4
  1

  0
LINE
  5
F5
330
5C
100
AcDbEntity
  8
0
  6
Continuous
 62
     7
100
AcDbLine
 10
81.04999978542529
 20
468.0999998379512
 30
0.0
 11
81.04999978542529
 21
460.0999998379588
 31
0.0
  0
LINE
  5
F6
330
5C
100
AcDbEntity
  8
0
  6
Continuous
 62
     7
100
AcDbLine
 10
81.04999978542529
 20
460.0999998379588
 30
0.0
 11
78.8499997854253
 21
460.0999998379588
 31
0.0
  0
LINE
  5
F7
330
5C
100
AcDbEntity
  8
0
  6
Continuous
 62
     7
100
AcDbLine
 10
78.8499997854253
 20
468.0999998379512
 30
0.0
 11
81.04999978542529
 21
468.0999998379512
 31
0.0
  0
LINE
  5
F8
330
5C
100
AcDbEntity
  8
0
  6
Continuous
 62
     7
100
AcDbLine
 10
78.8499997854253
 20
468.0999998379512
 30
0.0
 11
78.8499997854253
 21
460.0999998379588
 31
0.0
  0
LINE
  5
F9
330
5C
100
AcDbEntity
  8
0
  6
Continuous
 62
     7
100
AcDbLine
 10
78.8499997854253
 20
489.1499998379523
 30
0.0
 11
81.04999978542529
 21
489.1499998379523
 31
0.0
  0
LINE
  5
FA
330
5C
100
AcDbEntity
  8
0
  6
Continuous
 62
     7
100
AcDbLine
 10
78.8499997854253
 20
468.0999998379512
 30
0.0
 11
78.8499997854253
 21
477.0999998379512
 31
0.0
  0
LINE
  5
FB
330
5C
100
AcDbEntity
  8
0
  6
Continuous
 62
     7
100
AcDbLine
 10
78.8499997854253
 20
481.8344553813446
 30
0.0
 11
78.8499997854253
 21
477.0999998379512
 31
0.0
  0
LINE
  5
FC
330
5C
100
AcDbEntity
  8
0
  6
Continuous
 62
     7
100
AcDbLine
 10
78.8499997854253
 20
489.1499998379523
 30
0.0
 11
78.8499997854253
 21
481.8344553813446
 31
0.0
  0
LINE
  5
FD
330
5C
100
AcDbEntity
  8
0
  6
Continuous
 62
     7
100
AcDbLine
 10
81.04999978542529
 20
481.8344553813446
 30
0.0
 11
81.04999978542529
 21
489.1499998379523
 31
0.0
  0
LINE
  5
FE
330
5C
100
AcDbEntity
  8
0
  6
Continuous
 62
     7
100
AcDbLine
 10
81.04999978542529
 20
481.8344553813446
 30
0.0
 11
81.04999978542529
 21
477.0999998379512
 31
0.0
  0
LINE
  5
FF
330
5C
100
AcDbEntity
  8
0
  6
Continuous
 62
     7
100
AcDbLine
 10
78.8499997854253
 20
477.0999998379512
 30
0.0
 11
81.04999978542529
 21
477.0999998379512
 31
0.0
  0
LINE
  5
100
330
5C
100
AcDbEntity
  8
0
  6
Continuous
 62
     7
100
AcDbLine
 10
78.8499997854253
 20
481.8344553813446
 30
0.0
 11
81.04999978542529
 21
481.8344553813446
 31
0.0
  0
LINE
  5
101
330
5C
100
AcDbEntity
  8
0
  6
Continuous
 62
     7
100
AcDbLine
 10
81.04999978542529
 20
468.0999998379512
 30
0.0
 11
81.04999978542529
 21
477.0999998379512
 31
0.0
  0
ENDBLK
  5
5E
330
5C
100
AcDbEntity
  8
0
100
AcDbBlockEnd
  0
BLOCK
  5
61
330
5F
100
AcDbEntity
  8
0
100
AcDbBlockBegin
  2
SA_Links1
 70
     0
 10
79.94999980926718
 20
474.6250003575978
 30
0.0
  3
SA_Links1
  1

  0
INSERT
  5
60
330
5F
100
AcDbEntity
  8
0
100
AcDbBlockReference
  2
D-ST4-Select__4
 10
78.8499997854253
 20
460.0999998379588
 30
0.0
  0
MTEXT
  5
102
330
5F
100
AcDbEntity
  8
1
 62
     6
100
AcDbMText
 10
79.94999980926525
 20
455.1000000238118
 30
0.0
 40
5.0
 41
0.0
 71
     2
 72
     1
  1
 
  7
CONVERTER_11
 73
     1
 44
1.32052821128451
  0
ENDBLK
  5
62
330
5F
100
AcDbEntity
  8
0
100
AcDbBlockEnd
  0
BLOCK
  5
64
330
63
100
AcDbEntity
  8
0
100
AcDbBlockBegin
  2
D-ST4-Select__5
 70
     0
 10
-38.04999978542311
 20
460.0999998379589
 30
0.0
  3
D-ST4-Select__5
  1

  0
LINE
  5
103
330
63
100
AcDbEntity
  8
0
  6
Continuous
 62
     7
100
AcDbLine
 10
-35.84999978542311
 20
463.0999998379516
 30
0.0
 11
-35.84999978542311
 21
460.0999998379589
 31
0.0
  0
LINE
  5
104
330
63
100
AcDbEntity
  8
0
  6
Continuous
 62
     7
100
AcDbLine
 10
-35.84999978542311
 20
465.0999998379547
 30
0.0
 11
-35.84999978542311
 21
463.0999998379516
 31
0.0
  0
LINE
  5
105
330
63
100
AcDbEntity
  8
0
  6
Continuous
 62
     7
100
AcDbLine
 10
-35.84999978542311
 20
477.0999998379577
 30
0.0
 11
-35.84999978542311
 21
465.0999998379547
 31
0.0
  0
LINE
  5
106
330
63
100
AcDbEntity
  8
0
  6
Continuous
 62
     7
100
AcDbLine
 10
-38.04999978542311
 20
481.8344553813462
 30
0.0
 11
-38.04999978542311
 21
489.1499998379524
 31
0.0
  0
LINE
  5
107
330
63
100
AcDbEntity
  8
0
  6
Continuous
 62
     7
100
AcDbLine
 10
-38.04999978542311
 20
477.0999998379577
 30
0.0
 11
-38.04999978542311
 21
481.8344553813462
 31
0.0
  0
LINE
  5
108
330
63
100
AcDbEntity
  8
0
  6
Continuous
 62
     7
100
AcDbLine
 10
-35.84999978542311
 20
481.8344553813462
 30
0.0
 11
-38.04999978542311
 21
481.8344553813462
 31
0.0
  0
LINE
  5
109
330
63
100
AcDbEntity
  8
0
  6
Continuous
 62
     7
100
AcDbLine
 10
-38.04999978542311
 20
477.0999998379577
 30
0.0
 11
-35.84999978542311
 21
477.0999998379577
 31
0.0
  0
LINE
  5
10A
330
63
100
AcDbEntity
  8
0
  6
Continuous
 62
     7
100
AcDbLine
 10
-38.04999978542311
 20
460.0999998379589
 30
0.0
 11
-35.84999978542311
 21
460.0999998379589
 31
0.0
  0
LINE
  5
10B
330
63
100
AcDbEntity
  8
0
  6
Continuous
 62
     7
100
AcDbLine
 10
-38.04999978542311
 20
460.0999998379589
 30
0.0
 11
-38.04999978542311
 21
463.0999998379516
 31
0.0
  0
LINE
  5
10C
330
63
100
AcDbEntity
  8
0
  6
Continuous
 62
     7
100
AcDbLine
 10
-38.04999978542311
 20
463.0999998379516
 30
0.0
 11
-38.04999978542311
 21
465.0999998379547
 31
0.0
  0
LINE
  5
10D
330
63
100
AcDbEntity
  8
0
  6
Continuous
 62
     7
100
AcDbLine
 10
-35.84999978542311
 20
463.0999998379516
 30
0.0
 11
-38.04999978542311
 21
463.0999998379516
 31
0.0
  0
LINE
  5
10E
330
63
100
AcDbEntity
  8
0
  6
Continuous
 62
     7
100
AcDbLine
 10
-35.84999978542311
 20
465.0999998379547
 30
0.0
 11
-38.04999978542311
 21
465.0999998379547
 31
0.0
  0
LINE
  5
10F
330
63
100
AcDbEntity
  8
0
  6
Continuous
 62
     7
100
AcDbLine
 10
-35.84999978542311
 20
489.1499998379524
 30
0.0
 11
-38.04999978542311
 21
489.1499998379524
 31
0.0
  0
LINE
  5
110
330
63
100
AcDbEntity
  8
0
  6
Continuous
 62
     7
100
AcDbLine
 10
-35.84999978542311
 20
481.8344553813462
 30
0.0
 11
-35.84999978542311
 21
489.1499998379524
 31
0.0
  0
LINE
  5
111
330
63
100
AcDbEntity
  8
0
  6
Continuous
 62
     7
100
AcDbLine
 10
-35.84999978542311
 20
477.0999998379577
 30
0.0
 11
-35.84999978542311
 21
481.8344553813462
 31
0.0
  0
LINE
  5
112
330
63
100
AcDbEntity
  8
0
  6
Continuous
 62
     7
100
AcDbLine
 10
-38.04999978542311
 20
477.0999998379577
 30
0.0
 11
-38.04999978542311
 21
465.0999998379547
 31
0.0
  0
ENDBLK
  5
65
330
63
100
AcDbEntity
  8
0
100
AcDbBlockEnd
  0
BLOCK
  5
68
330
66
100
AcDbEntity
  8
0
100
AcDbBlockBegin
  2
SA_Rechts1
 70
     0
 10
-36.94999980926497
 20
474.6250003575979
 30
0.0
  3
SA_Rechts1
  1

  0
INSERT
  5
67
330
66
100
AcDbEntity
  8
0
100
AcDbBlockReference
  2
D-ST4-Select__5
 10
-38.04999978542311
 20
460.0999998379589
 30
0.0
  0
MTEXT
  5
113
330
66
100
AcDbEntity
  8
1
 62
     6
100
AcDbMText
 10
-36.94999980926514
 20
455.100000023812
 30
0.0
 40
5.0
 41
0.0
 71
     2
 72
     1
  1
 
  7
CONVERTER_11
 73
     1
 44
1.32052821128451
  0
ENDBLK
  5
69
330
66
100
AcDbEntity
  8
0
100
AcDbBlockEnd
  0
BLOCK
  5
6B
330
6A
100
AcDbEntity
  8
0
100
AcDbBlockBegin
  2
D-ST4-Select__6
 70
     0
 10
-2.95000034550302
 20
460.0999998379588
 30
0.0
  3
D-ST4-Select__6
  1

  0
LINE
  5
114
330
6A
100
AcDbEntity
  8
0
  6
Continuous
 62
     7
100
AcDbLine
 10
50.4158531328446
 20
460.0999998379588
 30
0.0
 11
-2.95000034550302
 21
460.0999998379588
 31
0.0
  0
LINE
  5
115
330
6A
100
AcDbEntity
  8
0
  6
Continuous
 62
     7
100
AcDbLine
 10
-2.95000034550302
 20
468.0999998379512
 30
0.0
 11
-2.95000034550302
 21
460.0999998379588
 31
0.0
  0
LINE
  5
116
330
6A
100
AcDbEntity
  8
0
  6
Continuous
 62
     7
100
AcDbLine
 10
24.24999965460071
 20
483.1499998379517
 30
0.0
 11
16.249999654601
 21
483.1499998379517
 31
0.0
  0
LINE
  5
117
330
6A
100
AcDbEntity
  8
0
  6
Continuous
 62
     7
100
AcDbLine
 10
-2.95000034550302
 20
481.8344553813446
 30
0.0
 11
-2.95000034550302
 21
477.0999998379512
 31
0.0
  0
LINE
  5
118
330
6A
100
AcDbEntity
  8
0
  6
Continuous
 62
     7
100
AcDbLine
 10
24.24999965460071
 20
487.449999838001
 30
0.0
 11
24.24999965460071
 21
483.1499998379517
 31
0.0
  0
LINE
  5
119
330
6A
100
AcDbEntity
  8
0
  6
Continuous
 62
     7
100
AcDbLine
 10
24.96849937388609
 20
489.1499998379523
 30
0.0
 11
24.24999965460071
 21
487.449999838001
 31
0.0
  0
LINE
  5
11A
330
6A
100
AcDbEntity
  8
0
  6
Continuous
 62
     7
100
AcDbLine
 10
15.53149993531933
 20
489.1499998379523
 30
0.0
 11
24.96849937388609
 21
489.1499998379523
 31
0.0
  0
LINE
  5
11B
330
6A
100
AcDbEntity
  8
0
  6
Continuous
 62
     7
100
AcDbLine
 10
24.96849937388609
 20
489.1499998379523
 30
0.0
 11
50.98980542515059
 21
489.1499998379523
 31
0.0
  0
LINE
  5
11C
330
6A
100
AcDbEntity
  8
0
  6
Continuous
 62
     7
100
AcDbLine
 10
-0.98980611615616
 20
489.1499998379523
 30
0.0
 11
15.53149993531933
 21
489.1499998379523
 31
0.0
  0
LINE
  5
11D
330
6A
100
AcDbEntity
  8
0
  6
Continuous
 62
     7
100
AcDbLine
 10
52.94999965449699
 20
481.8344553813461
 30
0.0
 11
50.98980542515059
 21
489.1499998379523
 31
0.0
  0
LINE
  5
11E
330
6A
100
AcDbEntity
  8
0
  6
Continuous
 62
     7
100
AcDbLine
 10
52.94999965449699
 20
477.0999998379576
 30
0.0
 11
52.94999965449699
 21
481.8344553813461
 31
0.0
  0
LINE
  5
11F
330
6A
100
AcDbEntity
  8
0
  6
Continuous
 62
     7
100
AcDbLine
 10
50.4158531328446
 20
460.0999998379588
 30
0.0
 11
52.94999965449826
 21
463.0999998379515
 31
0.0
  0
LINE
  5
120
330
6A
100
AcDbEntity
  8
0
  6
Continuous
 62
     7
100
AcDbLine
 10
52.94999965449826
 20
463.0999998379515
 30
0.0
 11
52.94999965449824
 21
465.0999998379546
 31
0.0
  0
LINE
  5
121
330
6A
100
AcDbEntity
  8
0
  6
Continuous
 62
     7
100
AcDbLine
 10
16.249999654601
 20
483.1499998379517
 30
0.0
 11
16.24999965460093
 21
487.4499998379482
 31
0.0
  0
LINE
  5
122
330
6A
100
AcDbEntity
  8
0
  6
Continuous
 62
     7
100
AcDbLine
 10
16.24999965460093
 20
487.4499998379482
 30
0.0
 11
15.53149993531933
 21
489.1499998379523
 31
0.0
  0
LINE
  5
123
330
6A
100
AcDbEntity
  8
0
  6
Continuous
 62
     7
100
AcDbLine
 10
-2.95000034550302
 20
481.8344553813446
 30
0.0
 11
-0.98980611615616
 21
489.1499998379523
 31
0.0
  0
ARC
  5
124
330
6A
100
AcDbEntity
  8
0
  6
Continuous
 62
     7
100
AcDbCircle
 10
-17.25908836675721
 20
472.5999998379512
 30
0.0
 40
15.00000000000001
100
AcDbArc
 50
342.5423968762779
 51
17.45760312372209
  0
ARC
  5
125
330
6A
100
AcDbEntity
  8
0
  6
Continuous
 62
     7
100
AcDbCircle
 10
66.69772673936451
 20
471.0999998379575
 30
0.0
 40
15.00000000000005
100
AcDbArc
 50
156.4218215217978
 51
203.5781784782139
  0
ENDBLK
  5
6C
330
6A
100
AcDbEntity
  8
0
100
AcDbBlockEnd
  0
BLOCK
  5
6F
330
6D
100
AcDbEntity
  8
0
100
AcDbBlockBegin
  2
Vordans1
 70
     0
 10
25.00000000001026
 20
474.6250003575978
 30
0.0
  3
Vordans1
  1

  0
INSERT
  5
6E
330
6D
100
AcDbEntity
  8
0
100
AcDbBlockReference
  2
D-ST4-Select__6
 10
-2.95000034550302
 20
460.0999998379588
 30
0.0
  0
MTEXT
  5
126
330
6D
100
AcDbEntity
  8
1
 62
     6
100
AcDbMText
 10
25.00000000001012
 20
455.1000000238118
 30
0.0
 40
5.0
 41
0.0
 71
     2
 72
     1
  1
 
  7
CONVERTER_11
 73
     1
 44
1.32052821128451
  0
DIMENSION
  5
131
330
6D
100
AcDbEntity
  8
1
100
AcDbDimension
  2
*D18
 10
-2.95000034550302
 20
441.645354036523
 30
0.0
 11
26.79504172250083
 21
445.570354036523
 31
0.0
 70
    32
  1
<>
 71
     5
 42
-1.0
 53
0.00013888888889
  3
ME10_DIM_11
100
AcDbAlignedDimension
 13
52.94999965449826
 23
463.0999998379515
 33
0.0
 14
-2.95000034550302
 24
460.0999998379588
 34
0.0
100
AcDbRotatedDimension
  0
DIMENSION
  5
13C
330
6D
100
AcDbEntity
  8
1
100
AcDbDimension
  2
*D19
 10
-11.22253056377617
 20
489.1499998379523
 30
0.0
 11
-15.14753056377617
 21
475.048076507703
 31
0.0
 70
    32
  1
<>
 71
     5
 42
-1.0
 53
90.0
  3
ME10_DIM_12
100
AcDbAlignedDimension
 13
-2.95000034550302
 23
460.0999998379588
 33
0.0
 14
-0.98980611615616
 24
489.1499998379523
 34
0.0
 50
90.0
100
AcDbRotatedDimension
  0
ENDBLK
  5
70
330
6D
100
AcDbEntity
  8
0
100
AcDbBlockEnd
  0
BLOCK
  5
72
330
71
100
AcDbEntity
  8
0
100
AcDbBlockBegin
  2
_rahmen
 70
     0
 10
212.4500000773869
 20
342.478583312084
 30
0.0
  3
_rahmen
  1

  0
LINE
  5
13D
330
71
100
AcDbEntity
  8
1
  6
DOT_CENTER
 62
     2
100
AcDbLine
 10
86.89185043719942
 20
368.603583312084
 30
0.0
 11
92.39185043719942
 21
368.603583312084
 31
0.0
  0
LINE
  5
13E
330
71
100
AcDbEntity
  8
1
  6
PHANTOM
 62
     2
100
AcDbLine
 10
95.64185043719942
 20
371.353583312084
 30
0.0
 11
95.64185043719942
 21
365.853583312084
 31
0.0
  0
LINE
  5
13F
330
71
100
AcDbEntity
  8
1
  6
PHANTOM
 62
     2
100
AcDbLine
 10
98.39185043719942
 20
368.603583312084
 30
0.0
 11
92.89185043719942
 21
368.603583312084
 31
0.0
  0
LINE
  5
140
330
71
100
AcDbEntity
  8
1
  6
Continuous
 62
     7
100
AcDbLine
 10
147.2051955506368
 20
355.978583312084
 30
0.0
 11
147.2051955506368
 21
364.4785833120841
 31
0.0
  0
LINE
  5
141
330
71
100
AcDbEntity
  8
1
  6
Continuous
 62
     6
100
AcDbLine
 10
119.3051955506367
 20
364.4785833120841
 30
0.0
 11
212.4500000773885
 21
364.4785833120841
 31
0.0
  0
LINE
  5
142
330
71
100
AcDbEntity
  8
1
  6
Continuous
 62
     7
100
AcDbLine
 10
82.90519555063682
 20
364.4785833120841
 30
0.0
 11
82.90519555063682
 21
372.9785833120841
 31
0.0
  0
LINE
  5
143
330
71
100
AcDbEntity
  8
1
  6
Continuous
 62
     7
100
AcDbLine
 10
119.3051955506367
 20
364.4785833120841
 30
0.0
 11
119.3051955506367
 21
372.9785833120841
 31
0.0
  0
LINE
  5
144
330
71
100
AcDbEntity
  8
1
  6
Continuous
 62
     7
100
AcDbLine
 10
177.0315917957097
 20
372.9785833120841
 30
0.0
 11
177.0315917957097
 21
364.4785833120841
 31
0.0
  0
LINE
  5
145
330
71
100
AcDbEntity
  8
1
  6
Continuous
 62
     7
100
AcDbLine
 10
203.5315917957093
 20
372.9785833120841
 30
0.0
 11
203.5315917957093
 21
364.4785833120841
 31
0.0
  0
LINE
  5
146
330
71
100
AcDbEntity
  8
1
  6
Continuous
 62
     6
100
AcDbLine
 10
13.90519555063685
 20
347.4785833120841
 30
0.0
 11
-31.04999992261315
 21
347.4785833120841
 31
0.0
  0
LINE
  5
147
330
71
100
AcDbEntity
  8
1
  6
Continuous
 62
     7
100
AcDbLine
 10
212.4500000773881
 20
355.9785833120841
 30
0.0
 11
119.3051955506367
 21
355.9785833120841
 31
0.0
  0
LINE
  5
148
102
{ACAD_REACTORS
330
25A
330
25B
102
}
330
71
100
AcDbEntity
  8
0
  6
Continuous
 62
     2
100
AcDbLine
 10
96.61262449240422
 20
356.7788724277474
 30
0.0
 11
96.61262449240422
 21
357.6513894345507
 31
0.0
  0
LINE
  5
149
102
{ACAD_REACTORS
330
25A
330
25B
102
}
330
71
100
AcDbEntity
  8
0
  6
Continuous
 62
     2
100
AcDbLine
 10
96.61262449240422
 20
355.8191037202645
 30
0.0
 11
96.61262449240422
 21
354.9465867134613
 31
0.0
  0
LINE
  5
14A
102
{ACAD_REACTORS
330
25C
330
25D
102
}
330
71
100
AcDbEntity
  8
0
  6
Continuous
 62
     2
100
AcDbLine
 10
111.9456686286947
 20
357.0406275297879
 30
0.0
 11
113.0493079282628
 21
357.0406275297879
 31
0.0
  0
LINE
  5
14B
102
{ACAD_REACTORS
330
25C
330
25D
102
}
330
71
100
AcDbEntity
  8
0
  6
Continuous
 62
     2
100
AcDbLine
 10
112.7153259716561
 20
355.819103720264
 30
0.0
 11
112.7153259716561
 21
354.9465867134607
 31
0.0
  0
LINE
  5
14C
102
{ACAD_REACTORS
330
266
330
267
102
}
330
71
100
AcDbEntity
  8
0
  6
Continuous
 62
     2
100
AcDbLine
 10
110.8545693562762
 20
358.1312737882747
 30
0.0
 11
112.2525224032165
 21
359.7121327820497
 31
0.0
  0
LINE
  5
14D
102
{ACAD_REACTORS
330
266
330
267
102
}
330
71
100
AcDbEntity
  8
0
  6
Continuous
 62
     2
100
AcDbLine
 10
110.949992772449
 20
361.1850833120859
 30
0.0
 11
112.2525224032165
 21
359.7121327820497
 31
0.0
  0
LINE
  5
14E
102
{ACAD_REACTORS
330
266
330
267
102
}
330
71
100
AcDbEntity
  8
0
  6
Continuous
 62
     2
100
AcDbLine
 10
113.5550520339829
 20
361.1850833120859
 30
0.0
 11
114.9577762517301
 21
361.1850833120859
 31
0.0
  0
LINE
  5
14F
102
{ACAD_REACTORS
330
266
330
267
102
}
330
71
100
AcDbEntity
  8
0
  6
Continuous
 62
     2
100
AcDbLine
 10
112.2572935740244
 20
358.1312737882747
 30
0.0
 11
112.9538845120901
 21
358.9190055735684
 31
0.0
  0
LINE
  5
150
102
{ACAD_REACTORS
330
266
330
267
102
}
330
71
100
AcDbEntity
  8
0
  6
Continuous
 62
     2
100
AcDbLine
 10
112.2572935740244
 20
358.1312737882747
 30
0.0
 11
110.8545693562762
 21
358.1312737882747
 31
0.0
  0
LINE
  5
151
102
{ACAD_REACTORS
330
268
330
269
102
}
330
71
100
AcDbEntity
  8
0
  6
Continuous
 62
     2
100
AcDbLine
 10
110.7352900860593
 20
358.1312737882747
 30
0.0
 11
109.4947856758064
 21
358.1312737882747
 31
0.0
  0
LINE
  5
152
102
{ACAD_REACTORS
330
26A
330
26B
102
}
330
71
100
AcDbEntity
  8
0
  6
Continuous
 62
     2
100
AcDbLine
 10
108.6268060676513
 20
355.9936071216249
 30
0.0
 11
108.3266408304612
 21
356.7614220876116
 31
0.0
  0
LINE
  5
153
102
{ACAD_REACTORS
330
26A
330
26B
102
}
330
71
100
AcDbEntity
  8
0
  6
Continuous
 62
     2
100
AcDbLine
 10
108.0264755932688
 20
355.9936071216249
 30
0.0
 11
108.6268060676513
 21
355.9936071216249
 31
0.0
  0
LINE
  5
154
102
{ACAD_REACTORS
330
26A
330
26B
102
}
330
71
100
AcDbEntity
  8
0
  6
Continuous
 62
     2
100
AcDbLine
 10
106.308435578395
 20
354.7720833121004
 30
0.0
 11
107.548939988648
 21
354.7720833121004
 31
0.0
  0
LINE
  5
155
102
{ACAD_REACTORS
330
26A
330
26B
102
}
330
71
100
AcDbEntity
  8
0
  6
Continuous
 62
     2
100
AcDbLine
 10
107.7063886253343
 20
357.8258928359115
 30
0.0
 11
108.946893035587
 21
357.8258928359115
 31
0.0
  0
LINE
  5
156
102
{ACAD_REACTORS
330
26A
330
26B
102
}
330
71
100
AcDbEntity
  8
0
  6
Continuous
 62
     2
100
AcDbLine
 10
108.946893035587
 20
357.8258928359115
 30
0.0
 11
110.3448460825273
 21
354.7720833121004
 31
0.0
  0
LINE
  5
157
102
{ACAD_REACTORS
330
26A
330
26B
102
}
330
71
100
AcDbEntity
  8
0
  6
Continuous
 62
     2
100
AcDbLine
 10
109.1043416722734
 20
354.7720833121004
 30
0.0
 11
108.8928616187976
 21
355.3130438563183
 31
0.0
  0
LINE
  5
158
102
{ACAD_REACTORS
330
26C
330
26D
102
}
330
71
100
AcDbEntity
  8
0
  6
Continuous
 62
     2
100
AcDbLine
 10
104.9620224766874
 20
354.7720833121004
 30
0.0
 11
106.1548151788539
 21
354.7720833121004
 31
0.0
  0
LINE
  5
159
102
{ACAD_REACTORS
330
26C
330
26D
102
}
330
71
100
AcDbEntity
  8
0
  6
Continuous
 62
     2
100
AcDbLine
 10
104.9620224766874
 20
357.0406275297879
 30
0.0
 11
104.9620224766874
 21
354.7720833121004
 31
0.0
  0
LINE
  5
15A
102
{ACAD_REACTORS
330
26C
330
26D
102
}
330
71
100
AcDbEntity
  8
0
  6
Continuous
 62
     2
100
AcDbLine
 10
104.1509234392128
 20
357.8258928359115
 30
0.0
 11
104.1509234392128
 21
357.0406275297879
 31
0.0
  0
LINE
  5
15B
102
{ACAD_REACTORS
330
26E
330
26F
102
}
330
71
100
AcDbEntity
  8
0
  6
Continuous
 62
     2
100
AcDbLine
 10
105.6301373207854
 20
358.1312737882747
 30
0.0
 11
106.8229300229519
 21
358.1312737882747
 31
0.0
  0
LINE
  5
15C
102
{ACAD_REACTORS
330
26E
330
26F
102
}
330
71
100
AcDbEntity
  8
0
  6
Continuous
 62
     2
100
AcDbLine
 10
108.0634344332059
 20
359.8763078018807
 30
0.0
 11
106.8229300229519
 21
361.1850833120859
 31
0.0
  0
LINE
  5
15D
102
{ACAD_REACTORS
330
26E
330
26F
102
}
330
71
100
AcDbEntity
  8
0
  6
Continuous
 62
     2
100
AcDbLine
 10
109.2562271353725
 20
361.1850833120859
 30
0.0
 11
108.0634344332059
 21
361.1850833120859
 31
0.0
  0
LINE
  5
15E
102
{ACAD_REACTORS
330
26E
330
26F
102
}
330
71
100
AcDbEntity
  8
0
  6
Continuous
 62
     2
100
AcDbLine
 10
109.2562271353725
 20
358.1312737882747
 30
0.0
 11
109.2562271353725
 21
361.1850833120859
 31
0.0
  0
LINE
  5
15F
102
{ACAD_REACTORS
330
26E
330
26F
102
}
330
71
100
AcDbEntity
  8
0
  6
Continuous
 62
     2
100
AcDbLine
 10
108.0634344332059
 20
358.1312737882747
 30
0.0
 11
109.2562271353725
 21
358.1312737882747
 31
0.0
  0
LINE
  5
160
102
{ACAD_REACTORS
330
26E
330
26F
102
}
330
71
100
AcDbEntity
  8
0
  6
Continuous
 62
     2
100
AcDbLine
 10
106.8229300229519
 20
359.4400492984794
 30
0.0
 11
108.0634344332059
 21
358.1312737882747
 31
0.0
  0
LINE
  5
161
102
{ACAD_REACTORS
330
270
330
271
102
}
330
71
100
AcDbEntity
  8
0
  6
Continuous
 62
     2
100
AcDbLine
 10
102.8149956127862
 20
356.5171173257064
 30
0.0
 11
101.5744912025333
 21
357.8258928359115
 31
0.0
  0
LINE
  5
162
102
{ACAD_REACTORS
330
270
330
271
102
}
330
71
100
AcDbEntity
  8
0
  6
Continuous
 62
     2
100
AcDbLine
 10
102.8149956127862
 20
357.8258928359115
 30
0.0
 11
102.8149956127862
 21
356.5171173257064
 31
0.0
  0
LINE
  5
163
102
{ACAD_REACTORS
330
270
330
271
102
}
330
71
100
AcDbEntity
  8
0
  6
Continuous
 62
     2
100
AcDbLine
 10
104.0077883149526
 20
357.8258928359115
 30
0.0
 11
102.8149956127862
 21
357.8258928359115
 31
0.0
  0
LINE
  5
164
102
{ACAD_REACTORS
330
270
330
271
102
}
330
71
100
AcDbEntity
  8
0
  6
Continuous
 62
     2
100
AcDbLine
 10
104.0077883149526
 20
354.7720833121004
 30
0.0
 11
104.0077883149526
 21
357.8258928359115
 31
0.0
  0
LINE
  5
165
102
{ACAD_REACTORS
330
270
330
271
102
}
330
71
100
AcDbEntity
  8
0
  6
Continuous
 62
     2
100
AcDbLine
 10
101.5744912025333
 20
356.080858822305
 30
0.0
 11
102.8149956127862
 21
354.7720833121004
 31
0.0
  0
LINE
  5
166
102
{ACAD_REACTORS
330
270
330
271
102
}
330
71
100
AcDbEntity
  8
0
  6
Continuous
 62
     2
100
AcDbLine
 10
101.5744912025333
 20
354.7720833121004
 30
0.0
 11
101.5744912025333
 21
356.080858822305
 31
0.0
  0
LINE
  5
167
102
{ACAD_REACTORS
330
260
330
261
102
}
330
71
100
AcDbEntity
  8
0
  6
Continuous
 62
     2
100
AcDbLine
 10
104.0556509539248
 20
360.4870697066429
 30
0.0
 11
105.3915787803525
 21
360.4870697066429
 31
0.0
  0
LINE
  5
168
102
{ACAD_REACTORS
330
260
330
261
102
}
330
71
100
AcDbEntity
  8
0
  6
Continuous
 62
     2
100
AcDbLine
 10
104.0556509539248
 20
358.8292873937172
 30
0.0
 11
104.0556509539248
 21
359.3091717474589
 31
0.0
  0
LINE
  5
169
102
{ACAD_REACTORS
330
260
330
261
102
}
330
71
100
AcDbEntity
  8
0
  6
Continuous
 62
     2
100
AcDbLine
 10
105.3915787803525
 20
358.8292873937172
 30
0.0
 11
104.0556509539248
 21
358.8292873937172
 31
0.0
  0
LINE
  5
16A
102
{ACAD_REACTORS
330
260
330
261
102
}
330
71
100
AcDbEntity
  8
0
  6
Continuous
 62
     2
100
AcDbLine
 10
105.3915787803525
 20
358.1312737882747
 30
0.0
 11
105.3915787803525
 21
358.8292873937172
 31
0.0
  0
LINE
  5
16B
102
{ACAD_REACTORS
330
260
330
261
102
}
330
71
100
AcDbEntity
  8
0
  6
Continuous
 62
     2
100
AcDbLine
 10
102.2412590565715
 20
358.1312737882747
 30
0.0
 11
105.3915787803525
 21
358.1312737882747
 31
0.0
  0
LINE
  5
16C
102
{ACAD_REACTORS
330
260
330
261
102
}
330
71
100
AcDbEntity
  8
0
  6
Continuous
 62
     2
100
AcDbLine
 10
102.2412590565715
 20
361.1850833120859
 30
0.0
 11
105.3915787803525
 21
361.1850833120859
 31
0.0
  0
LINE
  5
16D
102
{ACAD_REACTORS
330
260
330
261
102
}
330
71
100
AcDbEntity
  8
0
  6
Continuous
 62
     2
100
AcDbLine
 10
105.3915787803525
 20
360.4870697066429
 30
0.0
 11
105.3915787803525
 21
361.1850833120859
 31
0.0
  0
LINE
  5
16E
102
{ACAD_REACTORS
330
272
330
273
102
}
330
71
100
AcDbEntity
  8
0
  6
Continuous
 62
     2
100
AcDbLine
 10
99.37990356143152
 20
360.1162499787513
 30
0.0
 11
99.37990356143152
 21
361.1850833120859
 31
0.0
  0
LINE
  5
16F
102
{ACAD_REACTORS
330
272
330
273
102
}
330
71
100
AcDbEntity
  8
0
  6
Continuous
 62
     2
100
AcDbLine
 10
99.37990356143152
 20
361.1850833120859
 30
0.0
 11
100.5726962635979
 21
361.1850833120859
 31
0.0
  0
LINE
  5
170
102
{ACAD_REACTORS
330
272
330
273
102
}
330
71
100
AcDbEntity
  8
0
  6
Continuous
 62
     2
100
AcDbLine
 10
99.37990356143152
 20
359.2655458971185
 30
0.0
 11
98.33024598352404
 21
359.2655458971185
 31
0.0
  0
LINE
  5
171
102
{ACAD_REACTORS
330
272
330
273
102
}
330
71
100
AcDbEntity
  8
0
  6
Continuous
 62
     2
100
AcDbLine
 10
98.33024598352404
 20
359.2655458971185
 30
0.0
 11
98.33024598352404
 21
358.1312737882747
 31
0.0
  0
LINE
  5
172
102
{ACAD_REACTORS
330
272
330
273
102
}
330
71
100
AcDbEntity
  8
0
  6
Continuous
 62
     2
100
AcDbLine
 10
97.13745328135744
 20
361.1850833120859
 30
0.0
 11
97.13745328135744
 21
358.1312737882747
 31
0.0
  0
LINE
  5
173
102
{ACAD_REACTORS
330
264
330
265
102
}
330
71
100
AcDbEntity
  8
0
  6
Continuous
 62
     2
100
AcDbLine
 10
95.18127324980384
 20
359.8162498173036
 30
0.0
 11
95.18127324980384
 21
360.5219774666458
 31
0.0
  0
LINE
  5
174
102
{ACAD_REACTORS
330
264
330
265
102
}
330
71
100
AcDbEntity
  8
0
  6
Continuous
 62
     2
100
AcDbLine
 10
93.94076883954972
 20
358.1312737882747
 30
0.0
 11
95.18127324980384
 21
358.1312737882747
 31
0.0
  0
LINE
  5
175
102
{ACAD_REACTORS
330
264
330
265
102
}
330
71
100
AcDbEntity
  8
0
  6
Continuous
 62
     2
100
AcDbLine
 10
95.18127324980384
 20
358.1312737882747
 30
0.0
 11
95.18127324980384
 21
359.0743520294185
 31
0.0
  0
LINE
  5
176
102
{ACAD_REACTORS
330
25E
330
25F
102
}
330
71
100
AcDbEntity
  8
0
  6
Continuous
 62
     2
100
AcDbLine
 10
89.63582299033834
 20
355.4846388676573
 30
0.0
 11
88.15998972932871
 21
355.4846388676573
 31
0.0
  0
LINE
  5
177
102
{ACAD_REACTORS
330
25E
330
25F
102
}
330
71
100
AcDbEntity
  8
0
  6
Continuous
 62
     2
100
AcDbLine
 10
87.14185043719942
 20
360.7608386966839
 30
0.0
 11
87.14185043719942
 21
355.1963279274837
 31
0.0
  0
LINE
  5
178
102
{ACAD_REACTORS
330
25E
330
25F
102
}
330
71
100
AcDbEntity
  8
0
  6
Continuous
 62
     2
100
AcDbLine
 10
87.56609505258223
 20
361.1850833120677
 30
0.0
 11
93.03940714329903
 21
361.1850833120677
 31
0.0
  0
LINE
  5
179
102
{ACAD_REACTORS
330
25E
330
25F
102
}
330
71
100
AcDbEntity
  8
0
  6
Continuous
 62
     2
100
AcDbLine
 10
93.46365175868291
 20
360.7608386966839
 30
0.0
 11
93.46365175868291
 21
355.1963279274837
 31
0.0
  0
LINE
  5
17A
102
{ACAD_REACTORS
330
25E
330
25F
102
}
330
71
100
AcDbEntity
  8
0
  6
Continuous
 62
     2
100
AcDbLine
 10
93.03940714329903
 20
354.7720833121004
 30
0.0
 11
87.56609505258223
 21
354.7720833121004
 31
0.0
  0
LINE
  5
17B
102
{ACAD_REACTORS
330
25E
330
25F
102
}
330
71
100
AcDbEntity
  8
0
  6
Continuous
 62
     2
100
AcDbLine
 10
89.95153991341493
 20
355.800355790734
 30
0.0
 11
89.95153991341493
 21
357.3311267222656
 31
0.0
  0
LINE
  5
17C
102
{ACAD_REACTORS
330
25E
330
25F
102
}
330
71
100
AcDbEntity
  8
0
  6
Continuous
 62
     2
100
AcDbLine
 10
89.95153991341493
 20
359.5527862143906
 30
0.0
 11
89.95153991341493
 21
360.1568108334511
 31
0.0
  0
LINE
  5
17D
102
{ACAD_REACTORS
330
25E
330
25F
102
}
330
71
100
AcDbEntity
  8
0
  6
Continuous
 62
     2
100
AcDbLine
 10
88.15998972932871
 20
360.4725277565273
 30
0.0
 11
89.63582299033834
 21
360.4725277565273
 31
0.0
  0
LINE
  5
17E
102
{ACAD_REACTORS
330
25E
330
25F
102
}
330
71
100
AcDbEntity
  8
0
  6
Continuous
 62
     2
100
AcDbLine
 10
87.84427280625303
 20
360.1568108334511
 30
0.0
 11
87.84427280625303
 21
355.800355790734
 31
0.0
  0
LINE
  5
17F
102
{ACAD_REACTORS
330
264
330
265
102
}
330
71
100
AcDbEntity
  8
0
  6
Continuous
 62
     2
100
AcDbLine
 10
95.18127324980384
 20
359.0743520294185
 30
0.0
 11
95.94004083758412
 21
359.0743520294185
 31
0.0
  0
LINE
  5
180
102
{ACAD_REACTORS
330
264
330
265
102
}
330
71
100
AcDbEntity
  8
0
  6
Continuous
 62
     2
100
AcDbLine
 10
93.94076883954972
 20
361.1850833120859
 30
0.0
 11
95.94004083758412
 21
361.1850833120859
 31
0.0
  0
LINE
  5
181
102
{ACAD_REACTORS
330
264
330
265
102
}
330
71
100
AcDbEntity
  8
0
  6
Continuous
 62
     2
100
AcDbLine
 10
93.94076883954972
 20
361.1850833120859
 30
0.0
 11
93.94076883954972
 21
358.1312737882747
 31
0.0
  0
LINE
  5
182
102
{ACAD_REACTORS
330
264
330
265
102
}
330
71
100
AcDbEntity
  8
0
  6
Continuous
 62
     2
100
AcDbLine
 10
95.18127324980384
 20
359.8162498173036
 30
0.0
 11
95.49856831134574
 21
359.8162498173036
 31
0.0
  0
LINE
  5
183
102
{ACAD_REACTORS
330
264
330
265
102
}
330
71
100
AcDbEntity
  8
0
  6
Continuous
 62
     2
100
AcDbLine
 10
95.18127324980384
 20
360.5219774666458
 30
0.0
 11
95.49856831134574
 21
360.5219774666458
 31
0.0
  0
LINE
  5
184
102
{ACAD_REACTORS
330
272
330
273
102
}
330
71
100
AcDbEntity
  8
0
  6
Continuous
 62
     2
100
AcDbLine
 10
98.33024598352404
 20
360.1162499787513
 30
0.0
 11
99.37990356143152
 21
360.1162499787513
 31
0.0
  0
LINE
  5
185
102
{ACAD_REACTORS
330
272
330
273
102
}
330
71
100
AcDbEntity
  8
0
  6
Continuous
 62
     2
100
AcDbLine
 10
98.33024598352404
 20
361.1850833120859
 30
0.0
 11
98.33024598352404
 21
360.1162499787513
 31
0.0
  0
LINE
  5
186
102
{ACAD_REACTORS
330
272
330
273
102
}
330
71
100
AcDbEntity
  8
0
  6
Continuous
 62
     2
100
AcDbLine
 10
97.13745328135744
 20
361.1850833120859
 30
0.0
 11
98.33024598352404
 21
361.1850833120859
 31
0.0
  0
LINE
  5
187
102
{ACAD_REACTORS
330
272
330
273
102
}
330
71
100
AcDbEntity
  8
0
  6
Continuous
 62
     2
100
AcDbLine
 10
98.33024598352404
 20
358.1312737882747
 30
0.0
 11
97.13745328135744
 21
358.1312737882747
 31
0.0
  0
LINE
  5
188
102
{ACAD_REACTORS
330
272
330
273
102
}
330
71
100
AcDbEntity
  8
0
  6
Continuous
 62
     2
100
AcDbLine
 10
99.37990356143152
 20
358.1312737882747
 30
0.0
 11
99.37990356143152
 21
359.2655458971185
 31
0.0
  0
LINE
  5
189
102
{ACAD_REACTORS
330
272
330
273
102
}
330
71
100
AcDbEntity
  8
0
  6
Continuous
 62
     2
100
AcDbLine
 10
100.5726962635979
 20
358.1312737882747
 30
0.0
 11
99.37990356143152
 21
358.1312737882747
 31
0.0
  0
LINE
  5
18A
102
{ACAD_REACTORS
330
272
330
273
102
}
330
71
100
AcDbEntity
  8
0
  6
Continuous
 62
     2
100
AcDbLine
 10
100.5726962635979
 20
361.1850833120859
 30
0.0
 11
100.5726962635979
 21
358.1312737882747
 31
0.0
  0
LINE
  5
18B
102
{ACAD_REACTORS
330
260
330
261
102
}
330
71
100
AcDbEntity
  8
0
  6
Continuous
 62
     2
100
AcDbLine
 10
104.0556509539248
 20
359.3091717474589
 30
0.0
 11
105.3915787803525
 21
359.3091717474589
 31
0.0
  0
LINE
  5
18C
102
{ACAD_REACTORS
330
260
330
261
102
}
330
71
100
AcDbEntity
  8
0
  6
Continuous
 62
     2
100
AcDbLine
 10
105.3915787803525
 20
359.3091717474589
 30
0.0
 11
105.3915787803525
 21
360.0071853529012
 31
0.0
  0
LINE
  5
18D
102
{ACAD_REACTORS
330
260
330
261
102
}
330
71
100
AcDbEntity
  8
0
  6
Continuous
 62
     2
100
AcDbLine
 10
105.3915787803525
 20
360.0071853529012
 30
0.0
 11
104.0556509539248
 21
360.0071853529012
 31
0.0
  0
LINE
  5
18E
102
{ACAD_REACTORS
330
260
330
261
102
}
330
71
100
AcDbEntity
  8
0
  6
Continuous
 62
     2
100
AcDbLine
 10
104.0556509539248
 20
360.0071853529012
 30
0.0
 11
104.0556509539248
 21
360.4870697066429
 31
0.0
  0
LINE
  5
18F
102
{ACAD_REACTORS
330
270
330
271
102
}
330
71
100
AcDbEntity
  8
0
  6
Continuous
 62
     2
100
AcDbLine
 10
100.3816985003657
 20
354.7720833121004
 30
0.0
 11
101.5744912025333
 21
354.7720833121004
 31
0.0
  0
LINE
  5
190
102
{ACAD_REACTORS
330
270
330
271
102
}
330
71
100
AcDbEntity
  8
0
  6
Continuous
 62
     2
100
AcDbLine
 10
102.8149956127862
 20
354.7720833121004
 30
0.0
 11
104.0077883149526
 21
354.7720833121004
 31
0.0
  0
LINE
  5
191
102
{ACAD_REACTORS
330
270
330
271
102
}
330
71
100
AcDbEntity
  8
0
  6
Continuous
 62
     2
100
AcDbLine
 10
101.5744912025333
 20
357.8258928359115
 30
0.0
 11
100.3816985003657
 21
357.8258928359115
 31
0.0
  0
LINE
  5
192
102
{ACAD_REACTORS
330
270
330
271
102
}
330
71
100
AcDbEntity
  8
0
  6
Continuous
 62
     2
100
AcDbLine
 10
100.3816985003657
 20
357.8258928359115
 30
0.0
 11
100.3816985003657
 21
354.7720833121004
 31
0.0
  0
LINE
  5
193
102
{ACAD_REACTORS
330
26E
330
26F
102
}
330
71
100
AcDbEntity
  8
0
  6
Continuous
 62
     2
100
AcDbLine
 10
108.0634344332059
 20
361.1850833120859
 30
0.0
 11
108.0634344332059
 21
359.8763078018807
 31
0.0
  0
LINE
  5
194
102
{ACAD_REACTORS
330
26E
330
26F
102
}
330
71
100
AcDbEntity
  8
0
  6
Continuous
 62
     2
100
AcDbLine
 10
106.8229300229519
 20
361.1850833120859
 30
0.0
 11
105.6301373207854
 21
361.1850833120859
 31
0.0
  0
LINE
  5
195
102
{ACAD_REACTORS
330
26E
330
26F
102
}
330
71
100
AcDbEntity
  8
0
  6
Continuous
 62
     2
100
AcDbLine
 10
105.6301373207854
 20
361.1850833120859
 30
0.0
 11
105.6301373207854
 21
358.1312737882747
 31
0.0
  0
LINE
  5
196
102
{ACAD_REACTORS
330
26E
330
26F
102
}
330
71
100
AcDbEntity
  8
0
  6
Continuous
 62
     2
100
AcDbLine
 10
106.8229300229519
 20
358.1312737882747
 30
0.0
 11
106.8229300229519
 21
359.4400492984794
 31
0.0
  0
LINE
  5
197
102
{ACAD_REACTORS
330
26C
330
26D
102
}
330
71
100
AcDbEntity
  8
0
  6
Continuous
 62
     2
100
AcDbLine
 10
106.1548151788539
 20
354.7720833121004
 30
0.0
 11
106.1548151788539
 21
357.0406275297879
 31
0.0
  0
LINE
  5
198
102
{ACAD_REACTORS
330
26C
330
26D
102
}
330
71
100
AcDbEntity
  8
0
  6
Continuous
 62
     2
100
AcDbLine
 10
106.1548151788539
 20
357.0406275297879
 30
0.0
 11
106.9659142163264
 21
357.0406275297879
 31
0.0
  0
LINE
  5
199
102
{ACAD_REACTORS
330
26C
330
26D
102
}
330
71
100
AcDbEntity
  8
0
  6
Continuous
 62
     2
100
AcDbLine
 10
106.9659142163264
 20
357.0406275297879
 30
0.0
 11
106.9659142163264
 21
357.8258928359115
 31
0.0
  0
LINE
  5
19A
102
{ACAD_REACTORS
330
26C
330
26D
102
}
330
71
100
AcDbEntity
  8
0
  6
Continuous
 62
     2
100
AcDbLine
 10
106.9659142163264
 20
357.8258928359115
 30
0.0
 11
104.1509234392128
 21
357.8258928359115
 31
0.0
  0
LINE
  5
19B
102
{ACAD_REACTORS
330
26C
330
26D
102
}
330
71
100
AcDbEntity
  8
0
  6
Continuous
 62
     2
100
AcDbLine
 10
104.1509234392128
 20
357.0406275297879
 30
0.0
 11
104.9620224766874
 21
357.0406275297879
 31
0.0
  0
LINE
  5
19C
102
{ACAD_REACTORS
330
26A
330
26B
102
}
330
71
100
AcDbEntity
  8
0
  6
Continuous
 62
     2
100
AcDbLine
 10
107.7604200421238
 20
355.3130438563183
 30
0.0
 11
108.8928616187976
 21
355.3130438563183
 31
0.0
  0
LINE
  5
19D
102
{ACAD_REACTORS
330
26A
330
26B
102
}
330
71
100
AcDbEntity
  8
0
  6
Continuous
 62
     2
100
AcDbLine
 10
110.3448460825273
 20
354.7720833121004
 30
0.0
 11
109.1043416722734
 21
354.7720833121004
 31
0.0
  0
LINE
  5
19E
102
{ACAD_REACTORS
330
26A
330
26B
102
}
330
71
100
AcDbEntity
  8
0
  6
Continuous
 62
     2
100
AcDbLine
 10
107.7063886253343
 20
357.8258928359115
 30
0.0
 11
106.308435578395
 21
354.7720833121004
 31
0.0
  0
LINE
  5
19F
102
{ACAD_REACTORS
330
26A
330
26B
102
}
330
71
100
AcDbEntity
  8
0
  6
Continuous
 62
     2
100
AcDbLine
 10
107.548939988648
 20
354.7720833121004
 30
0.0
 11
107.7604200421238
 21
355.3130438563183
 31
0.0
  0
LINE
  5
1A0
102
{ACAD_REACTORS
330
26A
330
26B
102
}
330
71
100
AcDbEntity
  8
0
  6
Continuous
 62
     2
100
AcDbLine
 10
108.0264755932688
 20
355.9936071216249
 30
0.0
 11
108.3266408304612
 21
356.7614220876116
 31
0.0
  0
LINE
  5
1A1
102
{ACAD_REACTORS
330
268
330
269
102
}
330
71
100
AcDbEntity
  8
0
  6
Continuous
 62
     2
100
AcDbLine
 10
109.4947856758064
 20
358.1312737882747
 30
0.0
 11
109.4947856758064
 21
361.1850833120859
 31
0.0
  0
LINE
  5
1A2
102
{ACAD_REACTORS
330
268
330
269
102
}
330
71
100
AcDbEntity
  8
0
  6
Continuous
 62
     2
100
AcDbLine
 10
110.7352900860593
 20
361.1850833120859
 30
0.0
 11
110.7352900860593
 21
358.1312737882747
 31
0.0
  0
LINE
  5
1A3
102
{ACAD_REACTORS
330
268
330
269
102
}
330
71
100
AcDbEntity
  8
0
  6
Continuous
 62
     2
100
AcDbLine
 10
109.4947856758064
 20
361.1850833120859
 30
0.0
 11
110.7352900860593
 21
361.1850833120859
 31
0.0
  0
LINE
  5
1A4
102
{ACAD_REACTORS
330
266
330
267
102
}
330
71
100
AcDbEntity
  8
0
  6
Continuous
 62
     2
100
AcDbLine
 10
112.9538845120901
 20
358.9190055735684
 30
0.0
 11
113.6504754501556
 21
358.1312737882747
 31
0.0
  0
LINE
  5
1A5
102
{ACAD_REACTORS
330
266
330
267
102
}
330
71
100
AcDbEntity
  8
0
  6
Continuous
 62
     2
100
AcDbLine
 10
113.6504754501556
 20
358.1312737882747
 30
0.0
 11
115.0531996679039
 21
358.1312737882747
 31
0.0
  0
LINE
  5
1A6
102
{ACAD_REACTORS
330
266
330
267
102
}
330
71
100
AcDbEntity
  8
0
  6
Continuous
 62
     2
100
AcDbLine
 10
113.6552466209636
 20
359.7121327820497
 30
0.0
 11
115.0531996679039
 21
358.1312737882747
 31
0.0
  0
LINE
  5
1A7
102
{ACAD_REACTORS
330
266
330
267
102
}
330
71
100
AcDbEntity
  8
0
  6
Continuous
 62
     2
100
AcDbLine
 10
113.6552466209636
 20
359.7121327820497
 30
0.0
 11
114.9577762517301
 21
361.1850833120859
 31
0.0
  0
LINE
  5
1A8
102
{ACAD_REACTORS
330
266
330
267
102
}
330
71
100
AcDbEntity
  8
0
  6
Continuous
 62
     2
100
AcDbLine
 10
112.9538845120901
 20
360.5052599905304
 30
0.0
 11
113.5550520339829
 21
361.1850833120859
 31
0.0
  0
LINE
  5
1A9
102
{ACAD_REACTORS
330
266
330
267
102
}
330
71
100
AcDbEntity
  8
0
  6
Continuous
 62
     2
100
AcDbLine
 10
112.3527169901983
 20
361.1850833120859
 30
0.0
 11
112.9538845120901
 21
360.5052599905304
 31
0.0
  0
LINE
  5
1AA
102
{ACAD_REACTORS
330
266
330
267
102
}
330
71
100
AcDbEntity
  8
0
  6
Continuous
 62
     2
100
AcDbLine
 10
112.3527169901983
 20
361.1850833120859
 30
0.0
 11
110.949992772449
 21
361.1850833120859
 31
0.0
  0
LINE
  5
1AB
102
{ACAD_REACTORS
330
25C
330
25D
102
}
330
71
100
AcDbEntity
  8
0
  6
Continuous
 62
     2
100
AcDbLine
 10
113.0493079282628
 20
354.7720833121004
 30
0.0
 11
114.2421006304305
 21
354.7720833121004
 31
0.0
  0
LINE
  5
1AC
102
{ACAD_REACTORS
330
25C
330
25D
102
}
330
71
100
AcDbEntity
  8
0
  6
Continuous
 62
     2
100
AcDbLine
 10
114.2421006304305
 20
354.7720833121004
 30
0.0
 11
114.2421006304305
 21
357.0406275297879
 31
0.0
  0
LINE
  5
1AD
102
{ACAD_REACTORS
330
25C
330
25D
102
}
330
71
100
AcDbEntity
  8
0
  6
Continuous
 62
     2
100
AcDbLine
 10
114.2421006304305
 20
357.0406275297879
 30
0.0
 11
115.0531996679039
 21
357.0406275297879
 31
0.0
  0
LINE
  5
1AE
102
{ACAD_REACTORS
330
25C
330
25D
102
}
330
71
100
AcDbEntity
  8
0
  6
Continuous
 62
     2
100
AcDbLine
 10
115.0531996679039
 20
357.0406275297879
 30
0.0
 11
115.0531996679039
 21
357.8258928359115
 31
0.0
  0
LINE
  5
1AF
102
{ACAD_REACTORS
330
25C
330
25D
102
}
330
71
100
AcDbEntity
  8
0
  6
Continuous
 62
     2
100
AcDbLine
 10
111.6682541492752
 20
357.825892835911
 30
0.0
 11
115.0531996679039
 21
357.8258928359115
 31
0.0
  0
LINE
  5
1B0
102
{ACAD_REACTORS
330
25C
330
25D
102
}
330
71
100
AcDbEntity
  8
0
  6
Continuous
 62
     2
100
AcDbLine
 10
113.0493079282628
 20
357.0406275297879
 30
0.0
 11
113.0493079282628
 21
354.7720833121004
 31
0.0
  0
LINE
  5
1B1
102
{ACAD_REACTORS
330
25E
330
25F
102
}
330
71
100
AcDbEntity
  8
0
  6
Continuous
 62
     2
100
AcDbLine
 10
90.41982149278363
 20
356.7509634616649
 30
0.0
 11
90.41982149278363
 21
357.33281486836
 31
0.0
  0
LINE
  5
1B2
102
{ACAD_REACTORS
330
25E
330
25F
102
}
330
71
100
AcDbEntity
  8
0
  6
Continuous
 62
     2
100
AcDbLine
 10
90.41982149278363
 20
359.5510980682962
 30
0.0
 11
90.41982149278363
 21
360.156633356803
 31
0.0
  0
LINE
  5
1B3
330
71
100
AcDbEntity
  8
1
  6
Continuous
 62
     6
100
AcDbLine
 10
68.95000007738685
 20
347.4785833120841
 30
0.0
 11
82.90519555063682
 21
347.478583312084
 31
0.0
  0
LINE
  5
1B4
330
71
100
AcDbEntity
  8
1
  6
Continuous
 62
     6
100
AcDbLine
 10
18.95000007738662
 20
347.4785833120841
 30
0.0
 11
13.90519555063685
 21
347.4785833120841
 31
0.0
  0
LINE
  5
1B5
330
71
100
AcDbEntity
  8
1
  6
Continuous
 62
     6
100
AcDbLine
 10
168.9500000773868
 20
347.4785833120841
 30
0.0
 11
212.4500000773869
 21
347.4785833120841
 31
0.0
  0
LINE
  5
1B6
330
71
100
AcDbEntity
  8
1
  6
Continuous
 62
     6
100
AcDbLine
 10
118.9500000773868
 20
347.4785833120841
 30
0.0
 11
101.1051955506368
 21
347.4785833120841
 31
0.0
  0
LINE
  5
1B7
330
71
100
AcDbEntity
  8
1
  6
Continuous
 62
     2
100
AcDbLine
 10
212.4500000773869
 20
347.4785833120841
 30
0.0
 11
217.4500000773858
 21
347.4785833120841
 31
0.0
  0
LINE
  5
1B8
330
71
100
AcDbEntity
  8
1
  6
Continuous
 62
     2
100
AcDbLine
 10
212.4500000773869
 20
347.4785833120841
 30
0.0
 11
212.4500000773869
 21
342.478583312084
 31
0.0
  0
LINE
  5
1B9
330
71
100
AcDbEntity
  8
1
  6
Continuous
 62
     6
100
AcDbLine
 10
82.90519555063682
 20
364.4785833120841
 30
0.0
 11
119.3051955506367
 21
364.4785833120841
 31
0.0
  0
LINE
  5
1BA
330
71
100
AcDbEntity
  8
1
  6
Continuous
 62
     2
100
AcDbLine
 10
217.4500000773858
 20
342.478583312084
 30
0.0
 11
217.4500000773858
 21
347.4785833120841
 31
0.0
  0
LINE
  5
1BB
330
71
100
AcDbEntity
  8
1
  6
Continuous
 62
     2
100
AcDbLine
 10
217.4500000773858
 20
342.478583312084
 30
0.0
 11
212.4500000773869
 21
342.478583312084
 31
0.0
  0
LINE
  5
1BC
330
71
100
AcDbEntity
  8
1
  6
Continuous
 62
     2
100
AcDbLine
 10
212.4500000773869
 20
342.478583312084
 30
0.0
 11
168.9500000773868
 21
342.478583312084
 31
0.0
  0
LINE
  5
1BD
330
71
100
AcDbEntity
  8
1
  6
Continuous
 62
     6
100
AcDbLine
 10
212.4500000773885
 20
364.4785833120841
 30
0.0
 11
212.4500000773877
 21
397.4785833120842
 31
0.0
  0
LINE
  5
1BE
330
71
100
AcDbEntity
  8
1
  6
Continuous
 62
     2
100
AcDbLine
 10
217.4500000773858
 20
552.4785833120841
 30
0.0
 11
68.95000007738685
 21
552.4785833120841
 31
0.0
  0
LINE
  5
1BF
330
71
100
AcDbEntity
  8
1
  6
Continuous
 62
     6
100
AcDbLine
 10
212.4500000773858
 20
532.4785833120841
 30
0.0
 11
-74.54999992261224
 21
532.4785833120841
 31
0.0
  0
LINE
  5
1C0
330
71
100
AcDbEntity
  8
1
  6
Continuous
 62
     2
100
AcDbLine
 10
212.4500000773877
 20
397.4785833120842
 30
0.0
 11
217.4500000773858
 21
397.4785833120842
 31
0.0
  0
LINE
  5
1C1
330
71
100
AcDbEntity
  8
1
  6
Continuous
 62
     6
100
AcDbLine
 10
212.4500000773877
 20
397.4785833120842
 30
0.0
 11
212.4500000773872
 21
447.478583312084
 31
0.0
  0
LINE
  5
1C2
330
71
100
AcDbEntity
  8
1
  6
Continuous
 62
     2
100
AcDbLine
 10
217.4500000773858
 20
397.4785833120842
 30
0.0
 11
217.4500000773858
 21
447.478583312084
 31
0.0
  0
LINE
  5
1C3
330
71
100
AcDbEntity
  8
1
  6
Continuous
 62
     2
100
AcDbLine
 10
212.4500000773872
 20
447.478583312084
 30
0.0
 11
217.4500000773858
 21
447.478583312084
 31
0.0
  0
LINE
  5
1C4
330
71
100
AcDbEntity
  8
1
  6
Continuous
 62
     6
100
AcDbLine
 10
212.4500000773872
 20
447.478583312084
 30
0.0
 11
212.450000077386
 21
497.4785833120841
 31
0.0
  0
LINE
  5
1C5
330
71
100
AcDbEntity
  8
1
  6
Continuous
 62
     2
100
AcDbLine
 10
217.4500000773858
 20
447.478583312084
 30
0.0
 11
217.4500000773858
 21
497.4785833120841
 31
0.0
  0
LINE
  5
1C6
330
71
100
AcDbEntity
  8
1
  6
Continuous
 62
     2
100
AcDbLine
 10
212.450000077386
 20
497.4785833120841
 30
0.0
 11
217.4500000773858
 21
497.4785833120841
 31
0.0
  0
LINE
  5
1C7
330
71
100
AcDbEntity
  8
1
  6
Continuous
 62
     6
100
AcDbLine
 10
212.450000077386
 20
497.4785833120841
 30
0.0
 11
212.4500000773858
 21
532.4785833120841
 31
0.0
  0
LINE
  5
1C8
330
71
100
AcDbEntity
  8
1
  6
Continuous
 62
     2
100
AcDbLine
 10
217.4500000773858
 20
497.4785833120841
 30
0.0
 11
217.4500000773858
 21
552.4785833120841
 31
0.0
  0
LINE
  5
1C9
330
71
100
AcDbEntity
  8
1
  6
Continuous
 62
     2
100
AcDbLine
 10
217.4500000773858
 20
347.4785833120841
 30
0.0
 11
217.4500000773858
 21
397.4785833120842
 31
0.0
  0
LINE
  5
1CA
330
71
100
AcDbEntity
  8
1
  6
Continuous
 62
     2
100
AcDbLine
 10
68.95000007738685
 20
552.4785833120841
 30
0.0
 11
-79.54999992261224
 21
552.4785833120841
 31
0.0
  0
LINE
  5
1CB
330
71
100
AcDbEntity
  8
1
  6
Continuous
 62
     2
100
AcDbLine
 10
68.95000007738685
 20
552.4785833120841
 30
0.0
 11
68.95000007738685
 21
543.2698914673828
 31
0.0
  0
LINE
  5
1CC
330
71
100
AcDbEntity
  8
1
  6
Continuous
 62
     2
100
AcDbLine
 10
-79.54999992261224
 20
342.478583312084
 30
0.0
 11
-74.54999992261128
 21
342.478583312084
 31
0.0
  0
LINE
  5
1CD
330
71
100
AcDbEntity
  8
1
  6
Continuous
 62
     2
100
AcDbLine
 10
-79.54999992261224
 20
552.4785833120841
 30
0.0
 11
-79.54999992261224
 21
497.4785833120841
 31
0.0
  0
LINE
  5
1CE
330
71
100
AcDbEntity
  8
1
  6
Continuous
 62
     6
100
AcDbLine
 10
-74.54999992261224
 20
532.4785833120841
 30
0.0
 11
-74.54999992261219
 21
497.4785833120841
 31
0.0
  0
LINE
  5
1CF
330
71
100
AcDbEntity
  8
1
  6
Continuous
 62
     2
100
AcDbLine
 10
-79.54999992261224
 20
497.4785833120841
 30
0.0
 11
-74.54999992261219
 21
497.4785833120841
 31
0.0
  0
LINE
  5
1D0
330
71
100
AcDbEntity
  8
1
  6
Continuous
 62
     2
100
AcDbLine
 10
-79.54999992261224
 20
497.4785833120841
 30
0.0
 11
-79.54999992261224
 21
447.478583312084
 31
0.0
  0
LINE
  5
1D1
330
71
100
AcDbEntity
  8
1
  6
Continuous
 62
     6
100
AcDbLine
 10
-74.54999992261219
 20
497.4785833120841
 30
0.0
 11
-74.54999992261168
 21
447.478583312084
 31
0.0
  0
LINE
  5
1D2
330
71
100
AcDbEntity
  8
1
  6
Continuous
 62
     2
100
AcDbLine
 10
-79.54999992261224
 20
447.478583312084
 30
0.0
 11
-74.54999992261168
 21
447.478583312084
 31
0.0
  0
LINE
  5
1D3
330
71
100
AcDbEntity
  8
1
  6
Continuous
 62
     2
100
AcDbLine
 10
-79.54999992261224
 20
447.478583312084
 30
0.0
 11
-79.54999992261224
 21
397.4785833120842
 31
0.0
  0
LINE
  5
1D4
330
71
100
AcDbEntity
  8
1
  6
Continuous
 62
     6
100
AcDbLine
 10
-74.54999992261168
 20
447.478583312084
 30
0.0
 11
-74.54999992261145
 21
397.4785833120842
 31
0.0
  0
LINE
  5
1D5
330
71
100
AcDbEntity
  8
1
  6
Continuous
 62
     2
100
AcDbLine
 10
-79.54999992261224
 20
397.4785833120842
 30
0.0
 11
-74.54999992261145
 21
397.4785833120842
 31
0.0
  0
LINE
  5
1D6
330
71
100
AcDbEntity
  8
1
  6
Continuous
 62
     2
100
AcDbLine
 10
-79.54999992261224
 20
397.4785833120842
 30
0.0
 11
-79.54999992261224
 21
347.4785833120841
 31
0.0
  0
LINE
  5
1D7
330
71
100
AcDbEntity
  8
1
  6
Continuous
 62
     6
100
AcDbLine
 10
-74.54999992261145
 20
397.4785833120842
 30
0.0
 11
-74.54999992261128
 21
347.4785833120841
 31
0.0
  0
LINE
  5
1D8
330
71
100
AcDbEntity
  8
1
  6
Continuous
 62
     2
100
AcDbLine
 10
-31.04999992261315
 20
342.478583312084
 30
0.0
 11
-31.04999992261315
 21
347.4785833120841
 31
0.0
  0
LINE
  5
1D9
330
71
100
AcDbEntity
  8
1
  6
Continuous
 62
     2
100
AcDbLine
 10
-31.04999992261315
 20
342.478583312084
 30
0.0
 11
18.95000007738662
 21
342.478583312084
 31
0.0
  0
LINE
  5
1DA
330
71
100
AcDbEntity
  8
1
  6
Continuous
 62
     2
100
AcDbLine
 10
18.95000007738662
 20
342.478583312084
 30
0.0
 11
18.95000007738662
 21
347.4785833120841
 31
0.0
  0
LINE
  5
1DB
330
71
100
AcDbEntity
  8
1
  6
Continuous
 62
     2
100
AcDbLine
 10
18.95000007738662
 20
342.478583312084
 30
0.0
 11
68.95000007738685
 21
342.478583312084
 31
0.0
  0
LINE
  5
1DC
330
71
100
AcDbEntity
  8
1
  6
Continuous
 62
     2
100
AcDbLine
 10
68.95000007738685
 20
342.478583312084
 30
0.0
 11
68.95000007738685
 21
347.4785833120841
 31
0.0
  0
LINE
  5
1DD
330
71
100
AcDbEntity
  8
1
  6
Continuous
 62
     2
100
AcDbLine
 10
68.95000007738685
 20
342.478583312084
 30
0.0
 11
118.9500000773868
 21
342.478583312084
 31
0.0
  0
LINE
  5
1DE
330
71
100
AcDbEntity
  8
1
  6
Continuous
 62
     2
100
AcDbLine
 10
118.9500000773868
 20
342.478583312084
 30
0.0
 11
118.9500000773868
 21
347.4785833120841
 31
0.0
  0
LINE
  5
1DF
330
71
100
AcDbEntity
  8
1
  6
Continuous
 62
     2
100
AcDbLine
 10
168.9500000773868
 20
342.478583312084
 30
0.0
 11
168.9500000773868
 21
347.4785833120841
 31
0.0
  0
LINE
  5
1E0
330
71
100
AcDbEntity
  8
1
  6
Continuous
 62
     2
100
AcDbLine
 10
168.9500000773868
 20
342.478583312084
 30
0.0
 11
118.9500000773868
 21
342.478583312084
 31
0.0
  0
LINE
  5
1E1
330
71
100
AcDbEntity
  8
1
  6
Continuous
 62
     2
100
AcDbLine
 10
-74.54999992261128
 20
347.4785833120841
 30
0.0
 11
-74.54999992261128
 21
342.478583312084
 31
0.0
  0
LINE
  5
1E2
330
71
100
AcDbEntity
  8
1
  6
Continuous
 62
     2
100
AcDbLine
 10
-74.54999992261128
 20
342.478583312084
 30
0.0
 11
-31.04999992261315
 21
342.478583312084
 31
0.0
  0
LINE
  5
1E3
330
71
100
AcDbEntity
  8
1
  6
Continuous
 62
     2
100
AcDbLine
 10
-74.54999992261128
 20
347.4785833120841
 30
0.0
 11
-79.54999992261224
 21
347.4785833120841
 31
0.0
  0
LINE
  5
1E4
330
71
100
AcDbEntity
  8
1
  6
Continuous
 62
     2
100
AcDbLine
 10
-79.54999992261224
 20
347.4785833120841
 30
0.0
 11
-79.54999992261224
 21
342.478583312084
 31
0.0
  0
LINE
  5
1E5
330
71
100
AcDbEntity
  8
1
  6
Continuous
 62
     6
100
AcDbLine
 10
212.4500000773869
 20
347.4785833120841
 30
0.0
 11
212.4500000773881
 21
355.9785833120841
 31
0.0
  0
LINE
  5
1E6
330
71
100
AcDbEntity
  8
1
  6
Continuous
 62
     6
100
AcDbLine
 10
119.3051955506367
 20
347.478583312084
 30
0.0
 11
168.9500000773868
 21
347.4785833120841
 31
0.0
  0
LINE
  5
1E7
330
71
100
AcDbEntity
  8
1
  6
Continuous
 62
     6
100
AcDbLine
 10
-33.34999992261339
 20
347.478583312084
 30
0.0
 11
-31.04999992261315
 21
347.4785833120841
 31
0.0
  0
LINE
  5
1E8
330
71
100
AcDbEntity
  8
1
  6
Continuous
 62
     6
100
AcDbLine
 10
68.95000007738685
 20
347.4785833120841
 30
0.0
 11
18.95000007738662
 21
347.4785833120841
 31
0.0
  0
LINE
  5
1E9
330
71
100
AcDbEntity
  8
1
  6
Continuous
 62
     7
100
AcDbLine
 10
82.90519555063682
 20
364.4785833120841
 30
0.0
 11
82.90519555063682
 21
351.728583312084
 31
0.0
  0
LINE
  5
1EA
330
71
100
AcDbEntity
  8
1
  6
Continuous
 62
     7
100
AcDbLine
 10
119.3051955506367
 20
364.4785833120841
 30
0.0
 11
119.3051955506367
 21
351.7285833120841
 31
0.0
  0
LINE
  5
1EB
330
71
100
AcDbEntity
  8
1
  6
Continuous
 62
     6
100
AcDbLine
 10
-33.34999992261339
 20
347.478583312084
 30
0.0
 11
-39.54999992261139
 21
347.4785833120841
 31
0.0
  0
LINE
  5
1EC
330
71
100
AcDbEntity
  8
1
  6
Continuous
 62
     6
100
AcDbLine
 10
119.3051955506367
 20
347.478583312084
 30
0.0
 11
118.9500000773868
 21
347.4785833120841
 31
0.0
  0
LINE
  5
1ED
330
71
100
AcDbEntity
  8
1
  6
Continuous
 62
     6
100
AcDbLine
 10
212.4500000773885
 20
364.4785833120841
 30
0.0
 11
212.4500000773881
 21
355.9785833120841
 31
0.0
  0
LINE
  5
1EE
330
71
100
AcDbEntity
  8
1
  6
Continuous
 62
     6
100
AcDbLine
 10
-39.54999992261139
 20
347.4785833120841
 30
0.0
 11
-74.54999992261128
 21
347.4785833120841
 31
0.0
  0
LINE
  5
1EF
330
71
100
AcDbEntity
  8
1
  6
Continuous
 62
     2
100
AcDbLine
 10
87.14185043719942
 20
369.853583312084
 30
0.0
 11
92.14185043719942
 21
371.103583312084
 31
0.0
  0
LINE
  5
1F0
330
71
100
AcDbEntity
  8
1
  6
Continuous
 62
     2
100
AcDbLine
 10
87.14185043719942
 20
367.353583312084
 30
0.0
 11
87.14185043719942
 21
369.853583312084
 31
0.0
  0
LINE
  5
1F1
330
71
100
AcDbEntity
  8
1
  6
Continuous
 62
     2
100
AcDbLine
 10
92.14185043719942
 20
366.103583312084
 30
0.0
 11
87.14185043719942
 21
367.353583312084
 31
0.0
  0
LINE
  5
1F2
330
71
100
AcDbEntity
  8
1
  6
Continuous
 62
     2
100
AcDbLine
 10
92.14185043719942
 20
371.103583312084
 30
0.0
 11
92.14185043719942
 21
366.103583312084
 31
0.0
  0
LINE
  5
1F3
330
71
100
AcDbEntity
  8
1
  6
Continuous
 62
     7
100
AcDbLine
 10
82.90519555063682
 20
351.728583312084
 30
0.0
 11
101.1051955506368
 21
351.7285833120841
 31
0.0
  0
LINE
  5
1F4
330
71
100
AcDbEntity
  8
1
  6
Continuous
 62
     7
100
AcDbLine
 10
82.90519555063682
 20
351.728583312084
 30
0.0
 11
82.90519555063682
 21
347.478583312084
 31
0.0
  0
LINE
  5
1F5
330
71
100
AcDbEntity
  8
1
  6
Continuous
 62
     7
100
AcDbLine
 10
119.3051955506367
 20
351.7285833120841
 30
0.0
 11
119.3051955506367
 21
347.478583312084
 31
0.0
  0
LINE
  5
1F6
330
71
100
AcDbEntity
  8
1
  6
Continuous
 62
     7
100
AcDbLine
 10
101.1051955506368
 20
351.7285833120841
 30
0.0
 11
101.1051955506368
 21
347.4785833120841
 31
0.0
  0
LINE
  5
1F7
330
71
100
AcDbEntity
  8
1
  6
Continuous
 62
     6
100
AcDbLine
 10
101.1051955506368
 20
347.4785833120841
 30
0.0
 11
82.90519555063682
 21
347.478583312084
 31
0.0
  0
LINE
  5
1F8
330
71
100
AcDbEntity
  8
1
  6
Continuous
 62
     7
100
AcDbLine
 10
101.1051955506368
 20
351.7285833120841
 30
0.0
 11
119.3051955506367
 21
351.7285833120841
 31
0.0
  0
LINE
  5
1F9
330
71
100
AcDbEntity
  8
1
  6
Continuous
 62
     6
100
AcDbLine
 10
82.90519555063682
 20
372.9785833120841
 30
0.0
 11
212.4500000773885
 21
372.9785833120841
 31
0.0
  0
ARC
  5
1FA
102
{ACAD_REACTORS
330
262
330
263
102
}
330
71
100
AcDbEntity
  8
0
  6
Continuous
 62
     2
100
AcDbCircle
 10
98.29684354959682
 20
356.2989880740057
 30
0.0
 40
0.7717997786796947
100
AcDbArc
 50
321.8795802028417
 51
38.12041979715163
  0
ARC
  5
1FB
102
{ACAD_REACTORS
330
262
330
263
102
}
330
71
100
AcDbEntity
  8
0
  6
Continuous
 62
     2
100
AcDbCircle
 10
98.49658358594323
 20
356.1422568958857
 30
0.0
 40
0.5179085730137178
100
AcDbArc
 50
218.1204197971907
 51
321.8795802028035
  0
ARC
  5
1FC
102
{ACAD_REACTORS
330
262
330
263
102
}
330
71
100
AcDbEntity
  8
0
  6
Continuous
 62
     2
100
AcDbCircle
 10
98.69632362228933
 20
356.2989880740057
 30
0.0
 40
0.7717997786794457
100
AcDbArc
 50
141.879580202838
 51
218.1204197971687
  0
ARC
  5
1FD
102
{ACAD_REACTORS
330
262
330
263
102
}
330
71
100
AcDbEntity
  8
0
  6
Continuous
 62
     2
100
AcDbCircle
 10
98.49658358594323
 20
356.4557192521262
 30
0.0
 40
0.5179085730132998
100
AcDbArc
 50
38.12041979714704
 51
141.8795802028588
  0
ARC
  5
1FE
102
{ACAD_REACTORS
330
25A
330
25B
102
}
330
71
100
AcDbEntity
  8
0
  6
Continuous
 62
     2
100
AcDbCircle
 10
95.43456945037934
 20
354.8885217085975
 30
0.0
 40
2.227384008973453
100
AcDbArc
 50
58.06909105004033
 51
71.55192388186698
  0
ARC
  5
1FF
102
{ACAD_REACTORS
330
25A
330
25B
102
}
330
71
100
AcDbEntity
  8
0
  6
Continuous
 62
     2
100
AcDbCircle
 10
95.69629715133811
 20
356.5040595033447
 30
0.0
 40
0.5115800601948517
100
AcDbArc
 50
113.3722778882004
 51
151.4785267423044
  0
ARC
  5
200
102
{ACAD_REACTORS
330
25A
330
25B
102
}
330
71
100
AcDbEntity
  8
0
  6
Continuous
 62
     2
100
AcDbCircle
 10
96.07365440941842
 20
356.2989880740057
 30
0.0
 40
0.9410597353332545
100
AcDbArc
 50
151.4785267422669
 51
208.5214732577057
  0
ARC
  5
201
102
{ACAD_REACTORS
330
25A
330
25B
102
}
330
71
100
AcDbEntity
  8
0
  6
Continuous
 62
     2
100
AcDbCircle
 10
95.27669657528642
 20
359.6116690192621
 30
0.0
 40
4.85259686349811
100
AcDbArc
 50
275.158144769625
 51
285.9799912583529
  0
ARC
  5
202
102
{ACAD_REACTORS
330
25A
330
25B
102
}
330
71
100
AcDbEntity
  8
0
  6
Continuous
 62
     2
100
AcDbCircle
 10
95.56555267002233
 20
356.4117784360405
 30
0.0
 40
1.63969512393938
100
AcDbArc
 50
195.0618917770886
 51
275.1581447696396
  0
ARC
  5
203
102
{ACAD_REACTORS
330
25A
330
25B
102
}
330
71
100
AcDbEntity
  8
0
  6
Continuous
 62
     2
100
AcDbCircle
 10
95.14642482655952
 20
356.2989880740057
 30
0.0
 40
1.205656168390944
100
AcDbArc
 50
164.9381082228765
 51
195.0618917770948
  0
ARC
  5
204
102
{ACAD_REACTORS
330
25A
330
25B
102
}
330
71
100
AcDbEntity
  8
0
  6
Continuous
 62
     2
100
AcDbCircle
 10
95.56555267002233
 20
356.1861977119708
 30
0.0
 40
1.639695123940507
100
AcDbArc
 50
84.84185523036236
 51
164.9381082228864
  0
ARC
  5
205
102
{ACAD_REACTORS
330
25E
330
25F
102
}
330
71
100
AcDbEntity
  8
0
  6
Continuous
 62
     2
100
AcDbCircle
 10
90.73553841586042
 20
357.33281486836
 30
0.0
 40
0.3157169230765328
100
AcDbArc
 50
115.3740086783519
 51
180.0
  0
ARC
  5
206
102
{ACAD_REACTORS
330
25E
330
25F
102
}
330
71
100
AcDbEntity
  8
0
  6
Continuous
 62
     2
100
AcDbCircle
 10
90.73553841586042
 20
359.5510980682962
 30
0.0
 40
0.315716923076792
100
AcDbArc
 50
180.0
 51
244.6259913216482
  0
ARC
  5
207
102
{ACAD_REACTORS
330
25E
330
25F
102
}
330
71
100
AcDbEntity
  8
0
  6
Continuous
 62
     2
100
AcDbCircle
 10
90.74115455117044
 20
358.4537984092339
 30
0.0
 40
2.018561131933266
100
AcDbArc
 50
269.8110329575858
 51
90.18896704241416
  0
ARC
  5
208
102
{ACAD_REACTORS
330
25E
330
25F
102
}
330
71
100
AcDbEntity
  8
0
  6
Continuous
 62
     2
100
AcDbCircle
 10
90.73553841586042
 20
356.7509634616649
 30
0.0
 40
0.315716923076792
100
AcDbArc
 50
180.0
 51
269.8110329574542
  0
ARC
  5
209
102
{ACAD_REACTORS
330
25C
330
25D
102
}
330
71
100
AcDbEntity
  8
0
  6
Continuous
 62
     2
100
AcDbCircle
 10
111.798998630591
 20
356.5040595033447
 30
0.0
 40
0.5115800601944143
100
AcDbArc
 50
109.3371432194853
 51
151.4785267424253
  0
ARC
  5
20A
102
{ACAD_REACTORS
330
25C
330
25D
102
}
330
71
100
AcDbEntity
  8
0
  6
Continuous
 62
     2
100
AcDbCircle
 10
111.798998630591
 20
356.0939166446672
 30
0.0
 40
0.5115800601960215
100
AcDbArc
 50
208.5214732576866
 51
246.6277221118449
  0
ARC
  5
20B
102
{ACAD_REACTORS
330
25C
330
25D
102
}
330
71
100
AcDbEntity
  8
0
  6
Continuous
 62
     2
100
AcDbCircle
 10
111.2491263058136
 20
356.2989880740057
 30
0.0
 40
1.205656168392989
100
AcDbArc
 50
164.9381082229026
 51
195.0618917770974
  0
ARC
  5
20C
102
{ACAD_REACTORS
330
25C
330
25D
102
}
330
71
100
AcDbEntity
  8
0
  6
Continuous
 62
     2
100
AcDbCircle
 10
111.6682541492752
 20
356.1861977119708
 30
0.0
 40
1.639695123940214
100
AcDbArc
 50
90.0
 51
164.9381082228947
  0
ARC
  5
20D
102
{ACAD_REACTORS
330
260
330
261
102
}
330
71
100
AcDbEntity
  8
0
  6
Continuous
 62
     2
100
AcDbCircle
 10
102.2412590565715
 20
359.65817855018
 30
0.0
 40
1.526904761905882
100
AcDbArc
 50
90.0
 51
270.0
  0
ARC
  5
20E
102
{ACAD_REACTORS
330
264
330
265
102
}
330
71
100
AcDbEntity
  8
0
  6
Continuous
 62
     2
100
AcDbCircle
 10
95.49856831134574
 20
360.1691136419747
 30
0.0
 40
0.3528638246710898
100
AcDbArc
 50
270.0
 51
90.0
  0
ARC
  5
20F
102
{ACAD_REACTORS
330
25E
330
25F
102
}
330
71
100
AcDbEntity
  8
0
  6
Continuous
 62
     2
100
AcDbCircle
 10
88.15998972932871
 20
360.1568108334511
 30
0.0
 40
0.3157169230761951
100
AcDbArc
 50
90.0
 51
180.0
  0
ARC
  5
210
102
{ACAD_REACTORS
330
25E
330
25F
102
}
330
71
100
AcDbEntity
  8
0
  6
Continuous
 62
     2
100
AcDbCircle
 10
90.15840743791333
 20
358.4419564683284
 30
0.0
 40
0.9118975235576403
100
AcDbArc
 50
115.1944106485275
 51
244.8055893514878
  0
ARC
  5
211
102
{ACAD_REACTORS
330
25E
330
25F
102
}
330
71
100
AcDbEntity
  8
0
  6
Continuous
 62
     2
100
AcDbCircle
 10
89.63582299033834
 20
357.3311267222656
 30
0.0
 40
0.315716923076593
100
AcDbArc
 50
0.0
 51
64.80558935146027
  0
ARC
  5
212
102
{ACAD_REACTORS
330
25E
330
25F
102
}
330
71
100
AcDbEntity
  8
0
  6
Continuous
 62
     2
100
AcDbCircle
 10
87.56609505258223
 20
355.1963279274837
 30
0.0
 40
0.4242446153828041
100
AcDbArc
 50
180.0
 51
270.0
  0
ARC
  5
213
102
{ACAD_REACTORS
330
260
330
261
102
}
330
71
100
AcDbEntity
  8
0
  6
Continuous
 62
     2
100
AcDbCircle
 10
102.4575310667367
 20
359.8149097283005
 30
0.0
 40
0.5179085730135153
100
AcDbArc
 50
38.12041979714432
 51
141.8795802028499
  0
ARC
  5
214
102
{ACAD_REACTORS
330
260
330
261
102
}
330
71
100
AcDbEntity
  8
0
  6
Continuous
 62
     2
100
AcDbCircle
 10
102.657271103083
 20
359.65817855018
 30
0.0
 40
0.7717997786796835
100
AcDbArc
 50
141.8795802028411
 51
218.1204197971556
  0
ARC
  5
215
102
{ACAD_REACTORS
330
262
330
263
102
}
330
71
100
AcDbEntity
  8
0
  6
Continuous
 62
     2
100
AcDbCircle
 10
98.49658358594323
 20
356.837563084309
 30
0.0
 40
2.065479772208534
100
AcDbArc
 50
242.4518518243405
 51
297.5481481756867
  0
ARC
  5
216
102
{ACAD_REACTORS
330
262
330
263
102
}
330
71
100
AcDbEntity
  8
0
  6
Continuous
 62
     2
100
AcDbCircle
 10
98.49658358594323
 20
355.7604130637029
 30
0.0
 40
2.065479772208543
100
AcDbArc
 50
62.451851824306
 51
117.5481481756667
  0
ARC
  5
217
102
{ACAD_REACTORS
330
262
330
263
102
}
330
71
100
AcDbEntity
  8
0
  6
Continuous
 62
     2
100
AcDbCircle
 10
98.21564369410993
 20
356.2989880740057
 30
0.0
 40
1.458034083651465
100
AcDbArc
 50
117.548148175663
 51
242.451851824338
  0
ARC
  5
218
102
{ACAD_REACTORS
330
262
330
263
102
}
330
71
100
AcDbEntity
  8
0
  6
Continuous
 62
     2
100
AcDbCircle
 10
98.77752347777653
 20
356.2989880740057
 30
0.0
 40
1.458034083652028
100
AcDbArc
 50
297.5481481757005
 51
62.45185182429842
  0
ARC
  5
219
102
{ACAD_REACTORS
330
260
330
261
102
}
330
71
100
AcDbEntity
  8
0
  6
Continuous
 62
     2
100
AcDbCircle
 10
102.4575310667367
 20
359.5014473720596
 30
0.0
 40
0.5179085730134483
100
AcDbArc
 50
218.1204197971501
 51
321.8795802028557
  0
ARC
  5
21A
102
{ACAD_REACTORS
330
260
330
261
102
}
330
71
100
AcDbEntity
  8
0
  6
Continuous
 62
     2
100
AcDbCircle
 10
102.2577910303905
 20
359.65817855018
 30
0.0
 40
0.7717997786796373
100
AcDbArc
 50
321.8795802028437
 51
38.12041979715956
  0
ARC
  5
21B
102
{ACAD_REACTORS
330
25E
330
25F
102
}
330
71
100
AcDbEntity
  8
0
  6
Continuous
 62
     2
100
AcDbCircle
 10
93.03940714329903
 20
355.1963279274837
 30
0.0
 40
0.4242446153833157
100
AcDbArc
 50
270.0
 51
0.0
  0
ARC
  5
21C
102
{ACAD_REACTORS
330
25E
330
25F
102
}
330
71
100
AcDbEntity
  8
0
  6
Continuous
 62
     2
100
AcDbCircle
 10
93.03940714329903
 20
360.7608386966839
 30
0.0
 40
0.4242446153838841
100
AcDbArc
 50
0.0
 51
90.0
  0
ARC
  5
21D
102
{ACAD_REACTORS
330
25E
330
25F
102
}
330
71
100
AcDbEntity
  8
0
  6
Continuous
 62
     2
100
AcDbCircle
 10
87.56609505258223
 20
360.7608386966839
 30
0.0
 40
0.4242446153838273
100
AcDbArc
 50
90.0
 51
180.0
  0
ARC
  5
21E
102
{ACAD_REACTORS
330
25E
330
25F
102
}
330
71
100
AcDbEntity
  8
0
  6
Continuous
 62
     2
100
AcDbCircle
 10
89.63582299033834
 20
355.800355790734
 30
0.0
 40
0.3157169230767067
100
AcDbArc
 50
270.0
 51
0.0
  0
ARC
  5
21F
102
{ACAD_REACTORS
330
25E
330
25F
102
}
330
71
100
AcDbEntity
  8
0
  6
Continuous
 62
     2
100
AcDbCircle
 10
89.63582299033834
 20
359.5527862143906
 30
0.0
 40
0.3157169230761203
100
AcDbArc
 50
295.1944106485397
 51
0.0
  0
ARC
  5
220
102
{ACAD_REACTORS
330
25E
330
25F
102
}
330
71
100
AcDbEntity
  8
0
  6
Continuous
 62
     2
100
AcDbCircle
 10
89.63582299033834
 20
360.1568108334511
 30
0.0
 40
0.315716923076593
100
AcDbArc
 50
0.0
 51
90.0
  0
ARC
  5
221
102
{ACAD_REACTORS
330
25E
330
25F
102
}
330
71
100
AcDbEntity
  8
0
  6
Continuous
 62
     2
100
AcDbCircle
 10
88.15998972932871
 20
355.800355790734
 30
0.0
 40
0.3157169230756836
100
AcDbArc
 50
180.0
 51
270.0
  0
ARC
  5
222
102
{ACAD_REACTORS
330
264
330
265
102
}
330
71
100
AcDbEntity
  8
0
  6
Continuous
 62
     2
100
AcDbCircle
 10
95.94004083758412
 20
360.1297176707522
 30
0.0
 40
1.055365641333708
100
AcDbArc
 50
270.0
 51
90.0
  0
ARC
  5
223
102
{ACAD_REACTORS
330
25C
330
25D
102
}
330
71
100
AcDbEntity
  8
0
  6
Continuous
 62
     2
100
AcDbCircle
 10
111.6682541492752
 20
356.4117784360405
 30
0.0
 40
1.639695123940421
100
AcDbArc
 50
195.0618917771015
 51
275.1581447696762
  0
ARC
  5
224
102
{ACAD_REACTORS
330
25C
330
25D
102
}
330
71
100
AcDbEntity
  8
0
  6
Continuous
 62
     2
100
AcDbCircle
 10
111.3793980545394
 20
359.6116690192621
 30
0.0
 40
4.852596863498824
100
AcDbArc
 50
275.1581447696362
 51
285.9799912583386
  0
ARC
  5
225
102
{ACAD_REACTORS
330
25C
330
25D
102
}
330
71
100
AcDbEntity
  8
0
  6
Continuous
 62
     2
100
AcDbCircle
 10
111.5372709296322
 20
357.7094544394138
 30
0.0
 40
2.227384008972719
100
AcDbArc
 50
288.4480761181337
 51
301.9309089499398
  0
ARC
  5
226
102
{ACAD_REACTORS
330
25C
330
25D
102
}
330
71
100
AcDbEntity
  8
0
  6
Continuous
 62
     2
100
AcDbCircle
 10
111.9554386632941
 20
356.4559086633772
 30
0.0
 40
0.9059297849852801
100
AcDbArc
 50
246.6277221118183
 51
288.4480761180817
  0
ARC
  5
227
102
{ACAD_REACTORS
330
25C
330
25D
102
}
330
71
100
AcDbEntity
  8
0
  6
Continuous
 62
     2
100
AcDbCircle
 10
112.1763558886724
 20
356.2989880740057
 30
0.0
 40
0.9410597353348914
100
AcDbArc
 50
151.4785267423644
 51
208.5214732576691
  0
ARC
  5
228
102
{ACAD_REACTORS
330
25C
330
25D
102
}
330
71
100
AcDbEntity
  8
0
  6
Continuous
 62
     2
100
AcDbCircle
 10
111.9456686286947
 20
356.0861045229618
 30
0.0
 40
0.9545230068260935
100
AcDbArc
 50
90.0
 51
109.337143219432
  0
ARC
  5
229
102
{ACAD_REACTORS
330
25E
330
25F
102
}
330
71
100
AcDbEntity
  8
0
  6
Continuous
 62
     2
100
AcDbCircle
 10
90.73553841586042
 20
360.156633356803
 30
0.0
 40
0.3157169230760711
100
AcDbArc
 50
90.18896704254594
 51
180.0
  0
ARC
  5
22A
102
{ACAD_REACTORS
330
25E
330
25F
102
}
330
71
100
AcDbEntity
  8
0
  6
Continuous
 62
     2
100
AcDbCircle
 10
90.20949571777254
 20
358.4419564683284
 30
0.0
 40
0.9118481501444333
100
AcDbArc
 50
295.3740086781772
 51
64.62599132180748
  0
ARC
  5
22B
102
{ACAD_REACTORS
330
25A
330
25B
102
}
330
71
100
AcDbEntity
  8
0
  6
Continuous
 62
     2
100
AcDbCircle
 10
95.43456945037934
 20
357.7094544394143
 30
0.0
 40
2.227384008972656
100
AcDbArc
 50
288.4480761181335
 51
301.9309089499604
  0
ARC
  5
22C
102
{ACAD_REACTORS
330
25A
330
25B
102
}
330
71
100
AcDbEntity
  8
0
  6
Continuous
 62
     2
100
AcDbCircle
 10
95.85273718404014
 20
356.4559086633772
 30
0.0
 40
0.9059297849849192
100
AcDbArc
 50
246.627722111871
 51
288.4480761181579
  0
ARC
  5
22D
102
{ACAD_REACTORS
330
25A
330
25B
102
}
330
71
100
AcDbEntity
  8
0
  6
Continuous
 62
     2
100
AcDbCircle
 10
95.69629715133811
 20
356.0939166446672
 30
0.0
 40
0.5115800601948034
100
AcDbArc
 50
208.5214732576956
 51
246.6277221118274
  0
ARC
  5
22E
102
{ACAD_REACTORS
330
25A
330
25B
102
}
330
71
100
AcDbEntity
  8
0
  6
Continuous
 62
     2
100
AcDbCircle
 10
95.85273718404014
 20
356.1420674846341
 30
0.0
 40
0.9059297849853228
100
AcDbArc
 50
71.55192388185348
 51
113.372277888129
  0
ARC
  5
22F
102
{ACAD_REACTORS
330
25A
330
25B
102
}
330
71
100
AcDbEntity
  8
0
  6
Continuous
 62
     2
100
AcDbCircle
 10
95.27669657528642
 20
352.9863071287498
 30
0.0
 40
4.852596863498095
100
AcDbArc
 50
74.02000874164747
 51
84.84185523037509
  0
CIRCLE
  5
230
102
{ACAD_REACTORS
330
25E
330
25F
102
}
330
71
100
AcDbEntity
  8
0
  6
Continuous
 62
     2
100
AcDbCircle
 10
90.18568070309973
 20
358.4419564683284
 30
0.0
 40
0.4709789327785074
  0
CIRCLE
  5
231
330
71
100
AcDbEntity
  8
1
  6
Continuous
 62
     2
100
AcDbCircle
 10
95.64185043719942
 20
368.603583312084
 30
0.0
 40
1.249999999999915
  0
CIRCLE
  5
232
330
71
100
AcDbEntity
  8
1
  6
Continuous
 62
     2
100
AcDbCircle
 10
95.64185043719942
 20
368.603583312084
 30
0.0
 40
2.5
  0
TEXT
  5
233
330
71
100
AcDbEntity
  8
1
 62
     7
100
AcDbText
 10
138.2787432726506
 20
365.778583312084
 30
0.0
 40
2.5
  1
/
 41
0.9
  7
CONVERTER_11
100
AcDbText
  0
TEXT
  5
235
330
71
100
AcDbEntity
  8
1
 62
     7
100
AcDbText
 10
140.4351077696926
 20
365.778583312084
 30
0.0
 40
2.5
  1
01
 41
0.81
  7
CONVERTER_12
100
AcDbText
  0
TEXT
  5
236
330
71
100
AcDbEntity
  8
1
 62
     3
100
AcDbText
 10
178.0315917957097
 20
365.778583312084
 30
0.0
 40
2.5
  1
06.03.2018
 41
0.81
  7
CONVERTER_12
100
AcDbText
  0
MTEXT
  5
237
330
71
100
AcDbEntity
  8
1
 62
     2
100
AcDbMText
 10
178.0315917957097
 20
371.978583312084
 30
0.0
 40
1.8
 41
0.0
 71
     1
 72
     1
  1
date
  7
CONVERTER_11
 73
     1
 44
1.32052821128451
  0
MTEXT
  5
238
330
71
100
AcDbEntity
  8
1
 62
     2
100
AcDbMText
 10
148.2051955506368
 20
363.478583312084
 30
0.0
 40
1.8
 41
0.0
 71
     1
 72
     1
  1
document-type
  7
CONVERTER_11
 73
     1
 44
1.20048019207683
  0
TEXT
  5
239
330
71
100
AcDbEntity
  8
1
 62
     3
100
AcDbText
 10
148.2051955506368
 20
357.278583312084
 30
0.0
 40
2.5
  1
 
 41
0.81
  7
CONVERTER_12
100
AcDbText
  0
MTEXT
  5
23B
330
71
100
AcDbEntity
  8
1
 62
     2
100
AcDbMText
 10
120.4051955506368
 20
371.9785833120841
 30
0.0
 40
1.8
 41
0.0
 71
     1
 72
     1
  1
document-No. / RI
  7
CONVERTER_13
 73
     1
 44
1.32052821128451
  0
TEXT
  5
23C
330
71
100
AcDbEntity
  8
1
 62
     7
100
AcDbText
 10
120.4051955506368
 20
365.778583312084
 30
0.0
 40
2.5
  1
00317920
 41
0.81
  7
CONVERTER_12
100
AcDbText
  0
MTEXT
  5
23E
330
71
100
AcDbEntity
  8
1
 62
     3
100
AcDbMText
 10
207.9907959365492
 20
365.7785833120842
 30
0.0
 40
2.5
 41
0.0
 71
     8
 72
     1
  1
1:1
  7
CONVERTER_14
 73
     1
 44
1.32052821128451
  0
MTEXT
  5
23F
330
71
100
AcDbEntity
  8
1
 62
     2
100
AcDbMText
 10
204.6315917957095
 20
371.9785833120841
 30
0.0
 40
1.8
 41
0.0
 71
     1
 72
     1
  1
scale
  7
CONVERTER_11
 73
     1
 44
1.20048019207683
  0
MTEXT
  5
240
330
71
100
AcDbEntity
  8
1
 62
     2
100
AcDbMText
 10
120.4051955506368
 20
363.4785833120841
 30
0.0
 40
1.8
 41
0.0
 71
     1
 72
     1
  1
ident.-No.
  7
CONVERTER_11
 73
     1
 44
1.20048019207683
  0
TEXT
  5
241
330
71
100
AcDbEntity
  8
1
 62
     7
100
AcDbText
 10
120.8051955506365
 20
357.278583312084
 30
0.0
 40
2.5
  1
3030420
 41
0.81
  7
CONVERTER_12
100
AcDbText
  0
MTEXT
  5
242
330
71
100
AcDbEntity
  8
1
 62
     2
100
AcDbMText
 10
48.46718082558931
 20
360.228583312084
 30
0.0
 40
2.0
 41
0.0
 71
     5
 72
     1
  1
General Information\P- Simplified representation\P- Document excluded from change process\P- Linear dimensions [mm]
  7
CONVERTER_11
 73
     1
 44
1.20048019207683
  0
MTEXT
  5
243
330
71
100
AcDbEntity
  8
1
 62
     7
100
AcDbMText
 10
214.9500000773858
 20
422.478583312086
 30
0.0
 40
3.5
 41
0.0
 71
     5
 72
     1
  1
C
  7
CONVERTER_11
 73
     1
 44
1.20048019207683
  0
MTEXT
  5
244
330
71
100
AcDbEntity
  8
1
 62
     7
100
AcDbMText
 10
214.9500000773858
 20
524.9785833120841
 30
0.0
 40
3.5
 41
0.0
 71
     5
 72
     1
  1
A
  7
CONVERTER_11
 73
     1
 44
1.20048019207683
  0
MTEXT
  5
245
330
71
100
AcDbEntity
  8
1
 62
     7
100
AcDbMText
 10
214.9500000773858
 20
472.478583312086
 30
0.0
 40
3.5
 41
0.0
 71
     5
 72
     1
  1
B
  7
CONVERTER_11
 73
     1
 44
1.20048019207683
  0
MTEXT
  5
246
330
71
100
AcDbEntity
  8
1
 62
     7
100
AcDbMText
 10
214.9500000773858
 20
369.9785833120841
 30
0.0
 40
3.5
 41
0.0
 71
     5
 72
     1
  1
D
  7
CONVERTER_11
 73
     1
 44
1.20048019207683
  0
MTEXT
  5
247
330
71
100
AcDbEntity
  8
1
 62
     7
100
AcDbMText
 10
-55.29999992261276
 20
344.978583312084
 30
0.0
 40
3.5
 41
0.0
 71
     5
 72
     1
  1
1
  7
CONVERTER_11
 73
     1
 44
1.20048019207683
  0
MTEXT
  5
248
330
71
100
AcDbEntity
  8
1
 62
     7
100
AcDbMText
 10
-6.04999992261315
 20
344.978583312084
 30
0.0
 40
3.5
 41
0.0
 71
     5
 72
     1
  1
2
  7
CONVERTER_11
 73
     1
 44
1.20048019207683
  0
MTEXT
  5
249
330
71
100
AcDbEntity
  8
1
 62
     7
100
AcDbMText
 10
43.95000007738685
 20
344.978583312084
 30
0.0
 40
3.5
 41
0.0
 71
     5
 72
     1
  1
3
  7
CONVERTER_11
 73
     1
 44
1.20048019207683
  0
MTEXT
  5
24A
330
71
100
AcDbEntity
  8
1
 62
     7
100
AcDbMText
 10
93.95000007738673
 20
344.978583312084
 30
0.0
 40
3.5
 41
0.0
 71
     5
 72
     1
  1
4
  7
CONVERTER_11
 73
     1
 44
1.20048019207683
  0
MTEXT
  5
24B
330
71
100
AcDbEntity
  8
1
 62
     7
100
AcDbMText
 10
143.9500000773868
 20
344.978583312084
 30
0.0
 40
3.5
 41
0.0
 71
     5
 72
     1
  1
5
  7
CONVERTER_11
 73
     1
 44
1.20048019207683
  0
MTEXT
  5
24C
330
71
100
AcDbEntity
  8
1
 62
     7
100
AcDbMText
 10
193.200000077386
 20
344.978583312084
 30
0.0
 40
3.5
 41
0.0
 71
     5
 72
     1
  1
6
  7
CONVERTER_11
 73
     1
 44
1.20048019207683
  0
MTEXT
  5
24D
330
71
100
AcDbEntity
  8
1
 62
     7
100
AcDbMText
 10
-77.04999992261224
 20
524.9785833120841
 30
0.0
 40
3.5
 41
0.0
 71
     5
 72
     1
  1
A
  7
CONVERTER_11
 73
     1
 44
1.20048019207683
  0
MTEXT
  5
24E
330
71
100
AcDbEntity
  8
1
 62
     7
100
AcDbMText
 10
-77.04999992261224
 20
472.4785833120841
 30
0.0
 40
3.5
 41
0.0
 71
     5
 72
     1
  1
B
  7
CONVERTER_11
 73
     1
 44
1.20048019207683
  0
MTEXT
  5
24F
330
71
100
AcDbEntity
  8
1
 62
     7
100
AcDbMText
 10
-77.04999992261224
 20
422.4785833120841
 30
0.0
 40
3.5
 41
0.0
 71
     5
 72
     1
  1
C
  7
CONVERTER_11
 73
     1
 44
1.20048019207683
  0
MTEXT
  5
250
330
71
100
AcDbEntity
  8
1
 62
     7
100
AcDbMText
 10
-77.04999992261224
 20
369.9785833120841
 30
0.0
 40
3.5
 41
0.0
 71
     5
 72
     1
  1
D
  7
CONVERTER_11
 73
     1
 44
1.20048019207683
  0
MTEXT
  5
251
330
71
100
AcDbEntity
  8
1
 62
     3
100
AcDbMText
 10
109.1051955506367
 20
368.6035833120841
 30
0.0
 40
2.5
 41
0.0
 71
     5
 72
     1
  1
DIN A4
  7
CONVERTER_11
 73
     1
 44
1.20048019207683
  0
MTEXT
  5
252
330
71
100
AcDbEntity
  8
1
 62
     2
100
AcDbMText
 10
120.3051955506367
 20
354.9785833120841
 30
0.0
 40
1.8
 41
0.0
 71
     1
 72
     1
  1
description
  7
CONVERTER_11
 73
     1
 44
1.20048019207683
  0
MTEXT
  5
253
330
71
100
AcDbEntity
  8
1
 62
     7
100
AcDbMText
 10
165.8775978140123
 20
350.7285833120843
 30
0.0
 40
3.0
 41
0.0
 71
     5
 72
     1
  1
D-ST 4
  7
CONVERTER_12
 73
     1
 44
1.20048019207683
  0
TEXT
  5
254
330
71
100
AcDbEntity
  8
1
 62
     2
100
AcDbText
 10
107.3405043604503
 20
348.728583312084
 30
0.0
 40
1.8
  1
1
 41
0.9
  7
CONVERTER_11
100
AcDbText
  0
TEXT
  5
255
330
71
100
AcDbEntity
  8
1
 62
     2
100
AcDbText
 10
92.55146052097882
 20
348.6793346582821
 30
0.0
 40
1.8
  1
1
 41
0.9
  7
CONVERTER_11
100
AcDbText
  0
TEXT
  5
256
330
71
100
AcDbEntity
  8
1
 62
     2
100
AcDbText
 10
83.90519555063682
 20
348.7195660970924
 30
0.0
 40
1.8
  1
page
 41
0.9
  7
CONVERTER_11
100
AcDbText
  0
TEXT
  5
257
330
71
100
AcDbEntity
  8
1
 62
     2
100
AcDbText
 10
102.1051955506366
 20
348.7195660970925
 30
0.0
 40
1.8
  1
of
 41
0.9
  7
CONVERTER_11
100
AcDbText
  0
MTEXT
  5
258
330
71
100
AcDbEntity
  8
1
 62
     3
100
AcDbMText
 10
108.3081777022467
 20
534.2698914673829
 30
0.0
 40
1.8
 41
0.0
 71
     7
 72
     1
  3
Transfer or duplication of this document as well as the utilisation or\Pcommunication of its content are not permitted unless express consent\Pis granted. Violations give rise to claims for damages. All rights reserved\Pin case of patent, utility mo
  1
del or design patent registrations.
  7
CONVERTER_11
 73
     1
 44
0.99639855942377
  0
MTEXT
  5
259
330
71
100
AcDbEntity
  8
1
 62
     3
100
AcDbMText
 10
-74.54493213654138
 20
534.2698914673829
 30
0.0
 40
1.8
 41
0.0
 71
     7
 72
     1
  3
Weitergabe sowie Vervielf\U+00e4ltigung dieses Dokuments, Verwertung und \PMitteilung seines Inhalts sind verboten, soweit nicht ausdr\U+00fccklich gestattet. \PZuwiderhandlungen verpflichten zu Schadenersatz. Alle Rechte f\U+00fcr den Fall\Pder Pat
  1
ent-, Gebrauchsmuster- oder Designeintragung vorbehalten.
  7
CONVERTER_11
 73
     1
 44
0.99639855942377
  0
HATCH
  5
25A
330
71
100
AcDbEntity
  8
1
  6
Continuous
 62
     2
100
AcDbHatch
 10
0.0
 20
0.0
 30
0.0
210
0.0
220
0.0
230
1.0
  2
_USER
 70
     0
 71
     1
 91
        1
 92
        1
 93
       14
 72
     2
 10
95.14642482655952
 20
356.2989880740057
 40
1.205656168390944
 50
164.9381082228765
 51
195.0618917770948
 73
     1
 72
     2
 10
95.56555267002233
 20
356.4117784360405
 40
1.63969512393938
 50
195.0618917770886
 51
275.1581447696396
 73
     1
 72
     2
 10
95.27669657528642
 20
359.6116690192621
 40
4.85259686349811
 50
275.158144769625
 51
285.9799912583529
 73
     1
 72
     1
 10
96.61262449240422
 20
354.9465867134613
 11
96.61262449240422
 21
355.8191037202645
 72
     2
 10
95.43456945037934
 20
357.7094544394143
 40
2.227384008972656
 50
58.06909105003953
 51
71.55192388186651
 73
     0
 72
     2
 10
95.85273718404014
 20
356.4559086633772
 40
0.9059297849849192
 50
71.55192388184209
 51
113.372277888129
 73
     0
 72
     2
 10
95.69629715133811
 20
356.0939166446672
 40
0.5115800601948034
 50
113.3722778881726
 51
151.4785267423044
 73
     0
 72
     2
 10
96.07365440941842
 20
356.2989880740057
 40
0.9410597353332545
 50
151.4785267422943
 51
208.5214732577331
 73
     0
 72
     2
 10
95.69629715133811
 20
356.5040595033447
 40
0.5115800601948517
 50
208.5214732576956
 51
246.6277221117996
 73
     0
 72
     2
 10
95.85273718404014
 20
356.1420674846341
 40
0.9059297849853228
 50
246.627722111871
 51
288.4480761181465
 73
     0
 72
     2
 10
95.43456945037934
 20
354.8885217085975
 40
2.227384008973453
 50
288.448076118133
 51
301.9309089499596
 73
     0
 72
     1
 10
96.61262449240422
 20
356.7788724277474
 11
96.61262449240422
 21
357.6513894345507
 72
     2
 10
95.27669657528642
 20
352.9863071287498
 40
4.852596863498095
 50
74.02000874164747
 51
84.84185523037509
 73
     1
 72
     2
 10
95.56555267002233
 20
356.1861977119708
 40
1.639695123940507
 50
84.84185523036236
 51
164.9381082228864
 73
     1
 97
       14
330
22F
330
148
330
1FE
330
22E
330
1FF
330
200
330
22D
330
22C
330
22B
330
149
330
201
330
202
330
203
330
204
 75
     1
 76
     0
 52
45.0
 41
0.1
 77
     0
 78
     1
 53
45.0
 43
0.0
 44
0.0
 45
-0.0707106781186548
 46
0.0707106781186548
 79
     0
 98
        1
 10
0.0
 20
0.0
  0
HATCH
  5
25B
330
71
100
AcDbEntity
  8
1
  6
Continuous
 62
     2
100
AcDbHatch
 10
0.0
 20
0.0
 30
0.0
210
0.0
220
0.0
230
1.0
  2
_USER
 70
     0
 71
     1
 91
        1
 92
        1
 93
       14
 72
     2
 10
95.14642482655952
 20
356.2989880740057
 40
1.205656168390944
 50
164.9381082228765
 51
195.0618917770948
 73
     1
 72
     2
 10
95.56555267002233
 20
356.4117784360405
 40
1.63969512393938
 50
195.0618917770886
 51
275.1581447696396
 73
     1
 72
     2
 10
95.27669657528642
 20
359.6116690192621
 40
4.85259686349811
 50
275.158144769625
 51
285.9799912583529
 73
     1
 72
     1
 10
96.61262449240422
 20
354.9465867134613
 11
96.61262449240422
 21
355.8191037202645
 72
     2
 10
95.43456945037934
 20
357.7094544394143
 40
2.227384008972656
 50
58.06909105003953
 51
71.55192388186651
 73
     0
 72
     2
 10
95.85273718404014
 20
356.4559086633772
 40
0.9059297849849192
 50
71.55192388184209
 51
113.372277888129
 73
     0
 72
     2
 10
95.69629715133811
 20
356.0939166446672
 40
0.5115800601948034
 50
113.3722778881726
 51
151.4785267423044
 73
     0
 72
     2
 10
96.07365440941842
 20
356.2989880740057
 40
0.9410597353332545
 50
151.4785267422943
 51
208.5214732577331
 73
     0
 72
     2
 10
95.69629715133811
 20
356.5040595033447
 40
0.5115800601948517
 50
208.5214732576956
 51
246.6277221117996
 73
     0
 72
     2
 10
95.85273718404014
 20
356.1420674846341
 40
0.9059297849853228
 50
246.627722111871
 51
288.4480761181465
 73
     0
 72
     2
 10
95.43456945037934
 20
354.8885217085975
 40
2.227384008973453
 50
288.448076118133
 51
301.9309089499596
 73
     0
 72
     1
 10
96.61262449240422
 20
356.7788724277474
 11
96.61262449240422
 21
357.6513894345507
 72
     2
 10
95.27669657528642
 20
352.9863071287498
 40
4.852596863498095
 50
74.02000874164747
 51
84.84185523037509
 73
     1
 72
     2
 10
95.56555267002233
 20
356.1861977119708
 40
1.639695123940507
 50
84.84185523036236
 51
164.9381082228864
 73
     1
 97
       14
330
22F
330
148
330
1FE
330
22E
330
1FF
330
200
330
22D
330
22C
330
22B
330
149
330
201
330
202
330
203
330
204
 75
     1
 76
     0
 52
45.0
 41
0.1
 77
     0
 78
     1
 53
45.0
 43
0.0
 44
0.0
 45
-0.0707106781186548
 46
0.0707106781186548
 79
     0
 98
        1
 10
0.0
 20
0.0
  0
HATCH
  5
25C
330
71
100
AcDbEntity
  8
1
  6
Continuous
 62
     2
100
AcDbHatch
 10
0.0
 20
0.0
 30
0.0
210
0.0
220
0.0
230
1.0
  2
_USER
 70
     0
 71
     1
 91
        1
 92
        1
 93
       18
 72
     2
 10
111.6682541492752
 20
356.1861977119708
 40
1.639695123940214
 50
90.0
 51
164.9381082228947
 73
     1
 72
     2
 10
111.2491263058136
 20
356.2989880740057
 40
1.205656168392989
 50
164.9381082229026
 51
195.0618917770974
 73
     1
 72
     2
 10
111.6682541492752
 20
356.4117784360405
 40
1.639695123940421
 50
195.0618917771015
 51
275.1581447696762
 73
     1
 72
     2
 10
111.3793980545394
 20
359.6116690192621
 40
4.852596863498824
 50
275.1581447696362
 51
285.9799912583386
 73
     1
 72
     1
 10
112.7153259716561
 20
354.9465867134607
 11
112.7153259716561
 21
355.819103720264
 72
     2
 10
111.5372709296322
 20
357.7094544394138
 40
2.227384008972719
 50
58.06909105006019
 51
71.55192388186632
 73
     0
 72
     2
 10
111.9554386632941
 20
356.4559086633772
 40
0.9059297849852801
 50
71.55192388191827
 51
113.3722778881817
 73
     0
 72
     2
 10
111.798998630591
 20
356.0939166446672
 40
0.5115800601960215
 50
113.3722778881551
 51
151.4785267423134
 73
     0
 72
     2
 10
112.1763558886724
 20
356.2989880740057
 40
0.9410597353348914
 50
151.4785267423309
 51
208.5214732576356
 73
     0
 72
     2
 10
111.798998630591
 20
356.5040595033447
 40
0.5115800601944143
 50
208.5214732575747
 51
250.6628567805147
 73
     0
 72
     2
 10
111.9456686286947
 20
356.0861045229618
 40
0.9545230068260935
 50
250.662856780568
 51
270.0
 73
     0
 72
     1
 10
111.9456686286947
 20
357.0406275297879
 11
113.0493079282628
 21
357.0406275297879
 72
     1
 10
113.0493079282628
 20
357.0406275297879
 11
113.0493079282628
 21
354.7720833121004
 72
     1
 10
113.0493079282628
 20
354.7720833121004
 11
114.2421006304305
 21
354.7720833121004
 72
     1
 10
114.2421006304305
 20
354.7720833121004
 11
114.2421006304305
 21
357.0406275297879
 72
     1
 10
114.2421006304305
 20
357.0406275297879
 11
115.0531996679039
 21
357.0406275297879
 72
     1
 10
115.0531996679039
 20
357.0406275297879
 11
115.0531996679039
 21
357.8258928359115
 72
     1
 10
115.0531996679039
 20
357.8258928359115
 11
111.6682541492752
 21
357.825892835911
 97
       18
330
1AE
330
1AD
330
1AC
330
1AB
330
1B0
330
14A
330
228
330
209
330
227
330
20A
330
226
330
225
330
14B
330
224
330
223
330
20B
330
20C
330
1AF
 75
     1
 76
     0
 52
45.0
 41
0.1
 77
     0
 78
     1
 53
45.0
 43
0.0
 44
0.0
 45
-0.0707106781186548
 46
0.0707106781186548
 79
     0
 98
        1
 10
0.0
 20
0.0
  0
HATCH
  5
25D
330
71
100
AcDbEntity
  8
1
  6
Continuous
 62
     2
100
AcDbHatch
 10
0.0
 20
0.0
 30
0.0
210
0.0
220
0.0
230
1.0
  2
_USER
 70
     0
 71
     1
 91
        1
 92
        1
 93
       18
 72
     2
 10
111.6682541492752
 20
356.1861977119708
 40
1.639695123940214
 50
90.0
 51
164.9381082228947
 73
     1
 72
     2
 10
111.2491263058136
 20
356.2989880740057
 40
1.205656168392989
 50
164.9381082229026
 51
195.0618917770974
 73
     1
 72
     2
 10
111.6682541492752
 20
356.4117784360405
 40
1.639695123940421
 50
195.0618917771015
 51
275.1581447696762
 73
     1
 72
     2
 10
111.3793980545394
 20
359.6116690192621
 40
4.852596863498824
 50
275.1581447696362
 51
285.9799912583386
 73
     1
 72
     1
 10
112.7153259716561
 20
354.9465867134607
 11
112.7153259716561
 21
355.819103720264
 72
     2
 10
111.5372709296322
 20
357.7094544394138
 40
2.227384008972719
 50
58.06909105006019
 51
71.55192388186632
 73
     0
 72
     2
 10
111.9554386632941
 20
356.4559086633772
 40
0.9059297849852801
 50
71.55192388191827
 51
113.3722778881817
 73
     0
 72
     2
 10
111.798998630591
 20
356.0939166446672
 40
0.5115800601960215
 50
113.3722778881551
 51
151.4785267423134
 73
     0
 72
     2
 10
112.1763558886724
 20
356.2989880740057
 40
0.9410597353348914
 50
151.4785267423309
 51
208.5214732576356
 73
     0
 72
     2
 10
111.798998630591
 20
356.5040595033447
 40
0.5115800601944143
 50
208.5214732575747
 51
250.6628567805147
 73
     0
 72
     2
 10
111.9456686286947
 20
356.0861045229618
 40
0.9545230068260935
 50
250.662856780568
 51
270.0
 73
     0
 72
     1
 10
111.9456686286947
 20
357.0406275297879
 11
113.0493079282628
 21
357.0406275297879
 72
     1
 10
113.0493079282628
 20
357.0406275297879
 11
113.0493079282628
 21
354.7720833121004
 72
     1
 10
113.0493079282628
 20
354.7720833121004
 11
114.2421006304305
 21
354.7720833121004
 72
     1
 10
114.2421006304305
 20
354.7720833121004
 11
114.2421006304305
 21
357.0406275297879
 72
     1
 10
114.2421006304305
 20
357.0406275297879
 11
115.0531996679039
 21
357.0406275297879
 72
     1
 10
115.0531996679039
 20
357.0406275297879
 11
115.0531996679039
 21
357.8258928359115
 72
     1
 10
115.0531996679039
 20
357.8258928359115
 11
111.6682541492752
 21
357.825892835911
 97
       18
330
1AE
330
1AD
330
1AC
330
1AB
330
1B0
330
14A
330
228
330
209
330
227
330
20A
330
226
330
225
330
14B
330
224
330
223
330
20B
330
20C
330
1AF
 75
     1
 76
     0
 52
45.0
 41
0.1
 77
     0
 78
     1
 53
45.0
 43
0.0
 44
0.0
 45
-0.0707106781186548
 46
0.0707106781186548
 79
     0
 98
        1
 10
0.0
 20
0.0
  0
HATCH
  5
25E
330
71
100
AcDbEntity
  8
1
  6
Continuous
 62
     2
100
AcDbHatch
 10
0.0
 20
0.0
 30
0.0
210
0.0
220
0.0
230
1.0
  2
_USER
 70
     0
 71
     1
 91
        4
 92
        1
 93
        8
 72
     2
 10
87.56609505258223
 20
360.7608386966839
 40
0.4242446153838273
 50
90.0
 51
180.0
 73
     1
 72
     1
 10
87.14185043719942
 20
360.7608386966839
 11
87.14185043719942
 21
355.1963279274837
 72
     2
 10
87.56609505258223
 20
355.1963279274837
 40
0.4242446153828041
 50
180.0
 51
270.0
 73
     1
 72
     1
 10
87.56609505258223
 20
354.7720833121004
 11
93.03940714329903
 21
354.7720833121004
 72
     2
 10
93.03940714329903
 20
355.1963279274837
 40
0.4242446153833157
 50
270.0
 51
360.0
 73
     1
 72
     1
 10
93.46365175868291
 20
355.1963279274837
 11
93.46365175868291
 21
360.7608386966839
 72
     2
 10
93.03940714329903
 20
360.7608386966839
 40
0.4242446153838841
 50
0.0
 51
90.0
 73
     1
 72
     1
 10
93.03940714329903
 20
361.1850833120677
 11
87.56609505258223
 21
361.1850833120677
 97
        8
330
21C
330
179
330
21B
330
17A
330
212
330
177
330
21D
330
178
 92
       16
 93
        1
 72
     2
 10
90.18568070309973
 20
358.4419564683284
 40
0.4709789327785074
 50
0.0
 51
360.0
 73
     1
 97
        1
330
230
 92
       16
 93
        8
 72
     2
 10
90.20949571777254
 20
358.4419564683284
 40
0.9118481501444333
 50
295.3740086781772
 51
424.6259913218075
 73
     1
 72
     2
 10
90.73553841586042
 20
359.5510980682962
 40
0.315716923076792
 50
115.3740086783518
 51
180.0
 73
     0
 72
     1
 10
90.41982149278363
 20
359.5510980682962
 11
90.41982149278363
 21
360.156633356803
 72
     2
 10
90.73553841586042
 20
360.156633356803
 40
0.3157169230760711
 50
180.0
 51
269.8110329574541
 73
     0
 72
     2
 10
90.74115455117044
 20
358.4537984092339
 40
2.018561131933266
 50
269.8110329575858
 51
450.1889670424142
 73
     0
 72
     2
 10
90.73553841586042
 20
356.7509634616649
 40
0.315716923076792
 50
90.18896704254585
 51
180.0
 73
     0
 72
     1
 10
90.41982149278363
 20
356.7509634616649
 11
90.41982149278363
 21
357.33281486836
 72
     2
 10
90.73553841586042
 20
357.33281486836
 40
0.3157169230765328
 50
180.0
 51
244.6259913216482
 73
     0
 97
        8
330
22A
330
206
330
1B2
330
229
330
207
330
208
330
1B1
330
205
 92
       16
 93
       12
 72
     1
 10
88.15998972932871
 20
355.4846388676573
 11
89.63582299033834
 21
355.4846388676573
 72
     2
 10
89.63582299033834
 20
355.800355790734
 40
0.3157169230767067
 50
270.0
 51
360.0
 73
     1
 72
     1
 10
89.95153991341493
 20
355.800355790734
 11
89.95153991341493
 21
357.3311267222656
 72
     2
 10
89.63582299033834
 20
357.3311267222656
 40
0.315716923076593
 50
0.0
 51
64.80558935146027
 73
     1
 72
     2
 10
90.15840743791333
 20
358.4419564683284
 40
0.9118975235576403
 50
115.1944106485122
 51
244.8055893514725
 73
     0
 72
     2
 10
89.63582299033834
 20
359.5527862143906
 40
0.3157169230761203
 50
295.1944106485397
 51
360.0
 73
     1
 72
     1
 10
89.95153991341493
 20
359.5527862143906
 11
89.95153991341493
 21
360.1568108334511
 72
     2
 10
89.63582299033834
 20
360.1568108334511
 40
0.315716923076593
 50
0.0
 51
90.0
 73
     1
 72
     1
 10
89.63582299033834
 20
360.4725277565273
 11
88.15998972932871
 21
360.4725277565273
 72
     2
 10
88.15998972932871
 20
360.1568108334511
 40
0.3157169230761951
 50
90.0
 51
180.0
 73
     1
 72
     1
 10
87.84427280625303
 20
360.1568108334511
 11
87.84427280625303
 21
355.800355790734
 72
     2
 10
88.15998972932871
 20
355.800355790734
 40
0.3157169230756836
 50
180.0
 51
270.0
 73
     1
 97
       12
330
17E
330
20F
330
17D
330
220
330
17C
330
21F
330
210
330
211
330
17B
330
21E
330
176
330
221
 75
     1
 76
     0
 52
45.0
 41
0.1
 77
     0
 78
     1
 53
45.0
 43
0.0
 44
0.0
 45
-0.0707106781186548
 46
0.0707106781186548
 79
     0
 98
        1
 10
0.0
 20
0.0
  0
HATCH
  5
25F
330
71
100
AcDbEntity
  8
1
  6
Continuous
 62
     2
100
AcDbHatch
 10
0.0
 20
0.0
 30
0.0
210
0.0
220
0.0
230
1.0
  2
_USER
 70
     0
 71
     1
 91
        4
 92
        1
 93
        8
 72
     2
 10
87.56609505258223
 20
360.7608386966839
 40
0.4242446153838273
 50
90.0
 51
180.0
 73
     1
 72
     1
 10
87.14185043719942
 20
360.7608386966839
 11
87.14185043719942
 21
355.1963279274837
 72
     2
 10
87.56609505258223
 20
355.1963279274837
 40
0.4242446153828041
 50
180.0
 51
270.0
 73
     1
 72
     1
 10
87.56609505258223
 20
354.7720833121004
 11
93.03940714329903
 21
354.7720833121004
 72
     2
 10
93.03940714329903
 20
355.1963279274837
 40
0.4242446153833157
 50
270.0
 51
360.0
 73
     1
 72
     1
 10
93.46365175868291
 20
355.1963279274837
 11
93.46365175868291
 21
360.7608386966839
 72
     2
 10
93.03940714329903
 20
360.7608386966839
 40
0.4242446153838841
 50
0.0
 51
90.0
 73
     1
 72
     1
 10
93.03940714329903
 20
361.1850833120677
 11
87.56609505258223
 21
361.1850833120677
 97
        8
330
21C
330
179
330
21B
330
17A
330
212
330
177
330
21D
330
178
 92
       16
 93
        1
 72
     2
 10
90.18568070309973
 20
358.4419564683284
 40
0.4709789327785074
 50
0.0
 51
360.0
 73
     1
 97
        1
330
230
 92
       16
 93
        8
 72
     2
 10
90.20949571777254
 20
358.4419564683284
 40
0.9118481501444333
 50
295.3740086781772
 51
424.6259913218075
 73
     1
 72
     2
 10
90.73553841586042
 20
359.5510980682962
 40
0.315716923076792
 50
115.3740086783518
 51
180.0
 73
     0
 72
     1
 10
90.41982149278363
 20
359.5510980682962
 11
90.41982149278363
 21
360.156633356803
 72
     2
 10
90.73553841586042
 20
360.156633356803
 40
0.3157169230760711
 50
180.0
 51
269.8110329574541
 73
     0
 72
     2
 10
90.74115455117044
 20
358.4537984092339
 40
2.018561131933266
 50
269.8110329575858
 51
450.1889670424142
 73
     0
 72
     2
 10
90.73553841586042
 20
356.7509634616649
 40
0.315716923076792
 50
90.18896704254585
 51
180.0
 73
     0
 72
     1
 10
90.41982149278363
 20
356.7509634616649
 11
90.41982149278363
 21
357.33281486836
 72
     2
 10
90.73553841586042
 20
357.33281486836
 40
0.3157169230765328
 50
180.0
 51
244.6259913216482
 73
     0
 97
        8
330
22A
330
206
330
1B2
330
229
330
207
330
208
330
1B1
330
205
 92
       16
 93
       12
 72
     1
 10
88.15998972932871
 20
355.4846388676573
 11
89.63582299033834
 21
355.4846388676573
 72
     2
 10
89.63582299033834
 20
355.800355790734
 40
0.3157169230767067
 50
270.0
 51
360.0
 73
     1
 72
     1
 10
89.95153991341493
 20
355.800355790734
 11
89.95153991341493
 21
357.3311267222656
 72
     2
 10
89.63582299033834
 20
357.3311267222656
 40
0.315716923076593
 50
0.0
 51
64.80558935146027
 73
     1
 72
     2
 10
90.15840743791333
 20
358.4419564683284
 40
0.9118975235576403
 50
115.1944106485122
 51
244.8055893514725
 73
     0
 72
     2
 10
89.63582299033834
 20
359.5527862143906
 40
0.3157169230761203
 50
295.1944106485397
 51
360.0
 73
     1
 72
     1
 10
89.95153991341493
 20
359.5527862143906
 11
89.95153991341493
 21
360.1568108334511
 72
     2
 10
89.63582299033834
 20
360.1568108334511
 40
0.315716923076593
 50
0.0
 51
90.0
 73
     1
 72
     1
 10
89.63582299033834
 20
360.4725277565273
 11
88.15998972932871
 21
360.4725277565273
 72
     2
 10
88.15998972932871
 20
360.1568108334511
 40
0.3157169230761951
 50
90.0
 51
180.0
 73
     1
 72
     1
 10
87.84427280625303
 20
360.1568108334511
 11
87.84427280625303
 21
355.800355790734
 72
     2
 10
88.15998972932871
 20
355.800355790734
 40
0.3157169230756836
 50
180.0
 51
270.0
 73
     1
 97
       12
330
17E
330
20F
330
17D
330
220
330
17C
330
21F
330
210
330
211
330
17B
330
21E
330
176
330
221
 75
     1
 76
     0
 52
45.0
 41
0.1
 77
     0
 78
     1
 53
45.0
 43
0.0
 44
0.0
 45
-0.0707106781186548
 46
0.0707106781186548
 79
     0
 98
        1
 10
0.0
 20
0.0
  0
HATCH
  5
260
330
71
100
AcDbEntity
  8
1
  6
Continuous
 62
     2
100
AcDbHatch
 10
0.0
 20
0.0
 30
0.0
210
0.0
220
0.0
230
1.0
  2
_USER
 70
     0
 71
     1
 91
        2
 92
        1
 93
       12
 72
     2
 10
102.2412590565715
 20
359.65817855018
 40
1.526904761905882
 50
90.0
 51
270.0
 73
     1
 72
     1
 10
102.2412590565715
 20
358.1312737882747
 11
105.3915787803525
 21
358.1312737882747
 72
     1
 10
105.3915787803525
 20
358.1312737882747
 11
105.3915787803525
 21
358.8292873937172
 72
     1
 10
105.3915787803525
 20
358.8292873937172
 11
104.0556509539248
 21
358.8292873937172
 72
     1
 10
104.0556509539248
 20
358.8292873937172
 11
104.0556509539248
 21
359.3091717474589
 72
     1
 10
104.0556509539248
 20
359.3091717474589
 11
105.3915787803525
 21
359.3091717474589
 72
     1
 10
105.3915787803525
 20
359.3091717474589
 11
105.3915787803525
 21
360.0071853529012
 72
     1
 10
105.3915787803525
 20
360.0071853529012
 11
104.0556509539248
 21
360.0071853529012
 72
     1
 10
104.0556509539248
 20
360.0071853529012
 11
104.0556509539248
 21
360.4870697066429
 72
     1
 10
104.0556509539248
 20
360.4870697066429
 11
105.3915787803525
 21
360.4870697066429
 72
     1
 10
105.3915787803525
 20
360.4870697066429
 11
105.3915787803525
 21
361.1850833120859
 72
     1
 10
105.3915787803525
 20
361.1850833120859
 11
102.2412590565715
 21
361.1850833120859
 97
       12
330
16D
330
167
330
18E
330
18D
330
18C
330
18B
330
168
330
169
330
16A
330
16B
330
20D
330
16C
 92
       16
 93
        4
 72
     2
 10
102.657271103083
 20
359.65817855018
 40
0.7717997786796835
 50
141.8795802028411
 51
218.1204197971556
 73
     1
 72
     2
 10
102.4575310667367
 20
359.5014473720596
 40
0.5179085730134483
 50
218.1204197971501
 51
321.8795802028557
 73
     1
 72
     2
 10
102.2577910303905
 20
359.65817855018
 40
0.7717997786796373
 50
321.8795802028437
 51
398.1204197971596
 73
     1
 72
     2
 10
102.4575310667367
 20
359.8149097283005
 40
0.5179085730135153
 50
38.12041979714432
 51
141.8795802028499
 73
     1
 97
        4
330
21A
330
219
330
214
330
213
 75
     1
 76
     0
 52
45.0
 41
0.1
 77
     0
 78
     1
 53
45.0
 43
0.0
 44
0.0
 45
-0.0707106781186548
 46
0.0707106781186548
 79
     0
 98
        1
 10
0.0
 20
0.0
  0
HATCH
  5
261
330
71
100
AcDbEntity
  8
1
  6
Continuous
 62
     2
100
AcDbHatch
 10
0.0
 20
0.0
 30
0.0
210
0.0
220
0.0
230
1.0
  2
_USER
 70
     0
 71
     1
 91
        2
 92
        1
 93
       12
 72
     2
 10
102.2412590565715
 20
359.65817855018
 40
1.526904761905882
 50
90.0
 51
270.0
 73
     1
 72
     1
 10
102.2412590565715
 20
358.1312737882747
 11
105.3915787803525
 21
358.1312737882747
 72
     1
 10
105.3915787803525
 20
358.1312737882747
 11
105.3915787803525
 21
358.8292873937172
 72
     1
 10
105.3915787803525
 20
358.8292873937172
 11
104.0556509539248
 21
358.8292873937172
 72
     1
 10
104.0556509539248
 20
358.8292873937172
 11
104.0556509539248
 21
359.3091717474589
 72
     1
 10
104.0556509539248
 20
359.3091717474589
 11
105.3915787803525
 21
359.3091717474589
 72
     1
 10
105.3915787803525
 20
359.3091717474589
 11
105.3915787803525
 21
360.0071853529012
 72
     1
 10
105.3915787803525
 20
360.0071853529012
 11
104.0556509539248
 21
360.0071853529012
 72
     1
 10
104.0556509539248
 20
360.0071853529012
 11
104.0556509539248
 21
360.4870697066429
 72
     1
 10
104.0556509539248
 20
360.4870697066429
 11
105.3915787803525
 21
360.4870697066429
 72
     1
 10
105.3915787803525
 20
360.4870697066429
 11
105.3915787803525
 21
361.1850833120859
 72
     1
 10
105.3915787803525
 20
361.1850833120859
 11
102.2412590565715
 21
361.1850833120859
 97
       12
330
16D
330
167
330
18E
330
18D
330
18C
330
18B
330
168
330
169
330
16A
330
16B
330
20D
330
16C
 92
       16
 93
        4
 72
     2
 10
102.657271103083
 20
359.65817855018
 40
0.7717997786796835
 50
141.8795802028411
 51
218.1204197971556
 73
     1
 72
     2
 10
102.4575310667367
 20
359.5014473720596
 40
0.5179085730134483
 50
218.1204197971501
 51
321.8795802028557
 73
     1
 72
     2
 10
102.2577910303905
 20
359.65817855018
 40
0.7717997786796373
 50
321.8795802028437
 51
398.1204197971596
 73
     1
 72
     2
 10
102.4575310667367
 20
359.8149097283005
 40
0.5179085730135153
 50
38.12041979714432
 51
141.8795802028499
 73
     1
 97
        4
330
21A
330
219
330
214
330
213
 75
     1
 76
     0
 52
45.0
 41
0.1
 77
     0
 78
     1
 53
45.0
 43
0.0
 44
0.0
 45
-0.0707106781186548
 46
0.0707106781186548
 79
     0
 98
        1
 10
0.0
 20
0.0
  0
HATCH
  5
262
330
71
100
AcDbEntity
  8
1
  6
Continuous
 62
     2
100
AcDbHatch
 10
0.0
 20
0.0
 30
0.0
210
0.0
220
0.0
230
1.0
  2
_USER
 70
     0
 71
     1
 91
        2
 92
        1
 93
        4
 72
     2
 10
98.21564369410993
 20
356.2989880740057
 40
1.458034083651465
 50
117.548148175663
 51
242.451851824338
 73
     1
 72
     2
 10
98.49658358594323
 20
356.837563084309
 40
2.065479772208534
 50
242.4518518243405
 51
297.5481481756867
 73
     1
 72
     2
 10
98.77752347777653
 20
356.2989880740057
 40
1.458034083652028
 50
297.5481481757005
 51
422.4518518242985
 73
     1
 72
     2
 10
98.49658358594323
 20
355.7604130637029
 40
2.065479772208543
 50
62.451851824306
 51
117.5481481756667
 73
     1
 97
        4
330
218
330
215
330
217
330
216
 92
       16
 93
        4
 72
     2
 10
98.49658358594323
 20
356.4557192521262
 40
0.5179085730132998
 50
38.12041979714704
 51
141.8795802028588
 73
     1
 72
     2
 10
98.69632362228933
 20
356.2989880740057
 40
0.7717997786794457
 50
141.879580202838
 51
218.1204197971687
 73
     1
 72
     2
 10
98.49658358594323
 20
356.1422568958857
 40
0.5179085730137178
 50
218.1204197971907
 51
321.8795802028035
 73
     1
 72
     2
 10
98.29684354959682
 20
356.2989880740057
 40
0.7717997786796947
 50
321.8795802028417
 51
398.1204197971517
 73
     1
 97
        4
330
1FB
330
1FC
330
1FD
330
1FA
 75
     1
 76
     0
 52
45.0
 41
0.1
 77
     0
 78
     1
 53
45.0
 43
0.0
 44
0.0
 45
-0.0707106781186548
 46
0.0707106781186548
 79
     0
 98
        1
 10
0.0
 20
0.0
  0
HATCH
  5
263
330
71
100
AcDbEntity
  8
1
  6
Continuous
 62
     2
100
AcDbHatch
 10
0.0
 20
0.0
 30
0.0
210
0.0
220
0.0
230
1.0
  2
_USER
 70
     0
 71
     1
 91
        2
 92
        1
 93
        4
 72
     2
 10
98.21564369410993
 20
356.2989880740057
 40
1.458034083651465
 50
117.548148175663
 51
242.451851824338
 73
     1
 72
     2
 10
98.49658358594323
 20
356.837563084309
 40
2.065479772208534
 50
242.4518518243405
 51
297.5481481756867
 73
     1
 72
     2
 10
98.77752347777653
 20
356.2989880740057
 40
1.458034083652028
 50
297.5481481757005
 51
422.4518518242985
 73
     1
 72
     2
 10
98.49658358594323
 20
355.7604130637029
 40
2.065479772208543
 50
62.451851824306
 51
117.5481481756667
 73
     1
 97
        4
330
218
330
215
330
217
330
216
 92
       16
 93
        4
 72
     2
 10
98.49658358594323
 20
356.4557192521262
 40
0.5179085730132998
 50
38.12041979714704
 51
141.8795802028588
 73
     1
 72
     2
 10
98.69632362228933
 20
356.2989880740057
 40
0.7717997786794457
 50
141.879580202838
 51
218.1204197971687
 73
     1
 72
     2
 10
98.49658358594323
 20
356.1422568958857
 40
0.5179085730137178
 50
218.1204197971907
 51
321.8795802028035
 73
     1
 72
     2
 10
98.29684354959682
 20
356.2989880740057
 40
0.7717997786796947
 50
321.8795802028417
 51
398.1204197971517
 73
     1
 97
        4
330
1FB
330
1FC
330
1FD
330
1FA
 75
     1
 76
     0
 52
45.0
 41
0.1
 77
     0
 78
     1
 53
45.0
 43
0.0
 44
0.0
 45
-0.0707106781186548
 46
0.0707106781186548
 79
     0
 98
        1
 10
0.0
 20
0.0
  0
HATCH
  5
264
330
71
100
AcDbEntity
  8
1
  6
Continuous
 62
     2
100
AcDbHatch
 10
0.0
 20
0.0
 30
0.0
210
0.0
220
0.0
230
1.0
  2
_USER
 70
     0
 71
     1
 91
        2
 92
        1
 93
        6
 72
     1
 10
93.94076883954972
 20
361.1850833120859
 11
93.94076883954972
 21
358.1312737882747
 72
     1
 10
93.94076883954972
 20
358.1312737882747
 11
95.18127324980384
 21
358.1312737882747
 72
     1
 10
95.18127324980384
 20
358.1312737882747
 11
95.18127324980384
 21
359.0743520294185
 72
     1
 10
95.18127324980384
 20
359.0743520294185
 11
95.94004083758412
 21
359.0743520294185
 72
     2
 10
95.94004083758412
 20
360.1297176707522
 40
1.055365641333708
 50
270.0
 51
450.0
 73
     1
 72
     1
 10
95.94004083758412
 20
361.1850833120859
 11
93.94076883954972
 21
361.1850833120859
 97
        6
330
222
330
17F
330
175
330
174
330
181
330
180
 92
       16
 93
        4
 72
     1
 10
95.49856831134574
 20
360.5219774666458
 11
95.18127324980384
 21
360.5219774666458
 72
     1
 10
95.18127324980384
 20
360.5219774666458
 11
95.18127324980384
 21
359.8162498173036
 72
     1
 10
95.18127324980384
 20
359.8162498173036
 11
95.49856831134574
 21
359.8162498173036
 72
     2
 10
95.49856831134574
 20
360.1691136419747
 40
0.3528638246710898
 50
270.0
 51
450.0
 73
     1
 97
        4
330
182
330
173
330
183
330
20E
 75
     1
 76
     0
 52
45.0
 41
0.1
 77
     0
 78
     1
 53
45.0
 43
0.0
 44
0.0
 45
-0.0707106781186548
 46
0.0707106781186548
 79
     0
 98
        1
 10
0.0
 20
0.0
  0
HATCH
  5
265
330
71
100
AcDbEntity
  8
1
  6
Continuous
 62
     2
100
AcDbHatch
 10
0.0
 20
0.0
 30
0.0
210
0.0
220
0.0
230
1.0
  2
_USER
 70
     0
 71
     1
 91
        2
 92
        1
 93
        6
 72
     1
 10
93.94076883954972
 20
361.1850833120859
 11
93.94076883954972
 21
358.1312737882747
 72
     1
 10
93.94076883954972
 20
358.1312737882747
 11
95.18127324980384
 21
358.1312737882747
 72
     1
 10
95.18127324980384
 20
358.1312737882747
 11
95.18127324980384
 21
359.0743520294185
 72
     1
 10
95.18127324980384
 20
359.0743520294185
 11
95.94004083758412
 21
359.0743520294185
 72
     2
 10
95.94004083758412
 20
360.1297176707522
 40
1.055365641333708
 50
270.0
 51
450.0
 73
     1
 72
     1
 10
95.94004083758412
 20
361.1850833120859
 11
93.94076883954972
 21
361.1850833120859
 97
        6
330
222
330
17F
330
175
330
174
330
181
330
180
 92
       16
 93
        4
 72
     1
 10
95.49856831134574
 20
360.5219774666458
 11
95.18127324980384
 21
360.5219774666458
 72
     1
 10
95.18127324980384
 20
360.5219774666458
 11
95.18127324980384
 21
359.8162498173036
 72
     1
 10
95.18127324980384
 20
359.8162498173036
 11
95.49856831134574
 21
359.8162498173036
 72
     2
 10
95.49856831134574
 20
360.1691136419747
 40
0.3528638246710898
 50
270.0
 51
450.0
 73
     1
 97
        4
330
182
330
173
330
183
330
20E
 75
     1
 76
     0
 52
45.0
 41
0.1
 77
     0
 78
     1
 53
45.0
 43
0.0
 44
0.0
 45
-0.0707106781186548
 46
0.0707106781186548
 79
     0
 98
        1
 10
0.0
 20
0.0
  0
HATCH
  5
266
330
71
100
AcDbEntity
  8
1
  6
Continuous
 62
     2
100
AcDbHatch
 10
0.0
 20
0.0
 30
0.0
210
0.0
220
0.0
230
1.0
  2
_USER
 70
     0
 71
     1
 91
        1
 92
        1
 93
       12
 72
     1
 10
113.5550520339829
 20
361.1850833120859
 11
114.9577762517301
 21
361.1850833120859
 72
     1
 10
114.9577762517301
 20
361.1850833120859
 11
113.6552466209636
 21
359.7121327820497
 72
     1
 10
113.6552466209636
 20
359.7121327820497
 11
115.0531996679039
 21
358.1312737882747
 72
     1
 10
115.0531996679039
 20
358.1312737882747
 11
113.6504754501556
 21
358.1312737882747
 72
     1
 10
113.6504754501556
 20
358.1312737882747
 11
112.9538845120901
 21
358.9190055735684
 72
     1
 10
112.9538845120901
 20
358.9190055735684
 11
112.2572935740244
 21
358.1312737882747
 72
     1
 10
112.2572935740244
 20
358.1312737882747
 11
110.8545693562762
 21
358.1312737882747
 72
     1
 10
110.8545693562762
 20
358.1312737882747
 11
112.2525224032165
 21
359.7121327820497
 72
     1
 10
112.2525224032165
 20
359.7121327820497
 11
110.949992772449
 21
361.1850833120859
 72
     1
 10
110.949992772449
 20
361.1850833120859
 11
112.3527169901983
 21
361.1850833120859
 72
     1
 10
112.3527169901983
 20
361.1850833120859
 11
112.9538845120901
 21
360.5052599905304
 72
     1
 10
112.9538845120901
 20
360.5052599905304
 11
113.5550520339829
 21
361.1850833120859
 97
       12
330
14E
330
1A7
330
1A6
330
1A5
330
1A4
330
14F
330
150
330
14C
330
14D
330
1AA
330
1A9
330
1A8
 75
     1
 76
     0
 52
45.0
 41
0.1
 77
     0
 78
     1
 53
45.0
 43
0.0
 44
0.0
 45
-0.0707106781186548
 46
0.0707106781186548
 79
     0
 98
        1
 10
0.0
 20
0.0
  0
HATCH
  5
267
330
71
100
AcDbEntity
  8
1
  6
Continuous
 62
     2
100
AcDbHatch
 10
0.0
 20
0.0
 30
0.0
210
0.0
220
0.0
230
1.0
  2
_USER
 70
     0
 71
     1
 91
        1
 92
        1
 93
       12
 72
     1
 10
113.5550520339829
 20
361.1850833120859
 11
114.9577762517301
 21
361.1850833120859
 72
     1
 10
114.9577762517301
 20
361.1850833120859
 11
113.6552466209636
 21
359.7121327820497
 72
     1
 10
113.6552466209636
 20
359.7121327820497
 11
115.0531996679039
 21
358.1312737882747
 72
     1
 10
115.0531996679039
 20
358.1312737882747
 11
113.6504754501556
 21
358.1312737882747
 72
     1
 10
113.6504754501556
 20
358.1312737882747
 11
112.9538845120901
 21
358.9190055735684
 72
     1
 10
112.9538845120901
 20
358.9190055735684
 11
112.2572935740244
 21
358.1312737882747
 72
     1
 10
112.2572935740244
 20
358.1312737882747
 11
110.8545693562762
 21
358.1312737882747
 72
     1
 10
110.8545693562762
 20
358.1312737882747
 11
112.2525224032165
 21
359.7121327820497
 72
     1
 10
112.2525224032165
 20
359.7121327820497
 11
110.949992772449
 21
361.1850833120859
 72
     1
 10
110.949992772449
 20
361.1850833120859
 11
112.3527169901983
 21
361.1850833120859
 72
     1
 10
112.3527169901983
 20
361.1850833120859
 11
112.9538845120901
 21
360.5052599905304
 72
     1
 10
112.9538845120901
 20
360.5052599905304
 11
113.5550520339829
 21
361.1850833120859
 97
       12
330
14E
330
1A7
330
1A6
330
1A5
330
1A4
330
14F
330
150
330
14C
330
14D
330
1AA
330
1A9
330
1A8
 75
     1
 76
     0
 52
45.0
 41
0.1
 77
     0
 78
     1
 53
45.0
 43
0.0
 44
0.0
 45
-0.0707106781186548
 46
0.0707106781186548
 79
     0
 98
        1
 10
0.0
 20
0.0
  0
HATCH
  5
268
330
71
100
AcDbEntity
  8
1
  6
Continuous
 62
     2
100
AcDbHatch
 10
0.0
 20
0.0
 30
0.0
210
0.0
220
0.0
230
1.0
  2
_USER
 70
     0
 71
     1
 91
        1
 92
        1
 93
        4
 72
     1
 10
110.7352900860593
 20
361.1850833120859
 11
110.7352900860593
 21
358.1312737882747
 72
     1
 10
110.7352900860593
 20
358.1312737882747
 11
109.4947856758064
 21
358.1312737882747
 72
     1
 10
109.4947856758064
 20
358.1312737882747
 11
109.4947856758064
 21
361.1850833120859
 72
     1
 10
109.4947856758064
 20
361.1850833120859
 11
110.7352900860593
 21
361.1850833120859
 97
        4
330
1A2
330
151
330
1A1
330
1A3
 75
     1
 76
     0
 52
45.0
 41
0.1
 77
     0
 78
     1
 53
45.0
 43
0.0
 44
0.0
 45
-0.0707106781186548
 46
0.0707106781186548
 79
     0
 98
        1
 10
0.0
 20
0.0
  0
HATCH
  5
269
330
71
100
AcDbEntity
  8
1
  6
Continuous
 62
     2
100
AcDbHatch
 10
0.0
 20
0.0
 30
0.0
210
0.0
220
0.0
230
1.0
  2
_USER
 70
     0
 71
     1
 91
        1
 92
        1
 93
        4
 72
     1
 10
110.7352900860593
 20
361.1850833120859
 11
110.7352900860593
 21
358.1312737882747
 72
     1
 10
110.7352900860593
 20
358.1312737882747
 11
109.4947856758064
 21
358.1312737882747
 72
     1
 10
109.4947856758064
 20
358.1312737882747
 11
109.4947856758064
 21
361.1850833120859
 72
     1
 10
109.4947856758064
 20
361.1850833120859
 11
110.7352900860593
 21
361.1850833120859
 97
        4
330
1A2
330
151
330
1A1
330
1A3
 75
     1
 76
     0
 52
45.0
 41
0.1
 77
     0
 78
     1
 53
45.0
 43
0.0
 44
0.0
 45
-0.0707106781186548
 46
0.0707106781186548
 79
     0
 98
        1
 10
0.0
 20
0.0
  0
HATCH
  5
26A
330
71
100
AcDbEntity
  8
1
  6
Continuous
 62
     2
100
AcDbHatch
 10
0.0
 20
0.0
 30
0.0
210
0.0
220
0.0
230
1.0
  2
_USER
 70
     0
 71
     1
 91
        2
 92
        1
 93
        8
 72
     1
 10
110.3448460825273
 20
354.7720833121004
 11
109.1043416722734
 21
354.7720833121004
 72
     1
 10
109.1043416722734
 20
354.7720833121004
 11
108.8928616187976
 21
355.3130438563183
 72
     1
 10
108.8928616187976
 20
355.3130438563183
 11
107.7604200421238
 21
355.3130438563183
 72
     1
 10
107.7604200421238
 20
355.3130438563183
 11
107.548939988648
 21
354.7720833121004
 72
     1
 10
107.548939988648
 20
354.7720833121004
 11
106.308435578395
 21
354.7720833121004
 72
     1
 10
106.308435578395
 20
354.7720833121004
 11
107.7063886253343
 21
357.8258928359115
 72
     1
 10
107.7063886253343
 20
357.8258928359115
 11
108.946893035587
 21
357.8258928359115
 72
     1
 10
108.946893035587
 20
357.8258928359115
 11
110.3448460825273
 21
354.7720833121004
 97
        8
330
19D
330
157
330
19C
330
19F
330
154
330
19E
330
155
330
156
 92
       16
 93
        3
 72
     1
 10
108.0264755932688
 20
355.9936071216249
 11
108.6268060676513
 21
355.9936071216249
 72
     1
 10
108.6268060676513
 20
355.9936071216249
 11
108.3266408304612
 21
356.7614220876116
 72
     1
 10
108.3266408304612
 20
356.7614220876116
 11
108.0264755932688
 21
355.9936071216249
 97
        3
330
153
330
152
330
1A0
 75
     1
 76
     0
 52
45.0
 41
0.1
 77
     0
 78
     1
 53
45.0
 43
0.0
 44
0.0
 45
-0.0707106781186548
 46
0.0707106781186548
 79
     0
 98
        1
 10
0.0
 20
0.0
  0
HATCH
  5
26B
330
71
100
AcDbEntity
  8
1
  6
Continuous
 62
     2
100
AcDbHatch
 10
0.0
 20
0.0
 30
0.0
210
0.0
220
0.0
230
1.0
  2
_USER
 70
     0
 71
     1
 91
        2
 92
        1
 93
        8
 72
     1
 10
110.3448460825273
 20
354.7720833121004
 11
109.1043416722734
 21
354.7720833121004
 72
     1
 10
109.1043416722734
 20
354.7720833121004
 11
108.8928616187976
 21
355.3130438563183
 72
     1
 10
108.8928616187976
 20
355.3130438563183
 11
107.7604200421238
 21
355.3130438563183
 72
     1
 10
107.7604200421238
 20
355.3130438563183
 11
107.548939988648
 21
354.7720833121004
 72
     1
 10
107.548939988648
 20
354.7720833121004
 11
106.308435578395
 21
354.7720833121004
 72
     1
 10
106.308435578395
 20
354.7720833121004
 11
107.7063886253343
 21
357.8258928359115
 72
     1
 10
107.7063886253343
 20
357.8258928359115
 11
108.946893035587
 21
357.8258928359115
 72
     1
 10
108.946893035587
 20
357.8258928359115
 11
110.3448460825273
 21
354.7720833121004
 97
        8
330
19D
330
157
330
19C
330
19F
330
154
330
19E
330
155
330
156
 92
       16
 93
        3
 72
     1
 10
108.0264755932688
 20
355.9936071216249
 11
108.6268060676513
 21
355.9936071216249
 72
     1
 10
108.6268060676513
 20
355.9936071216249
 11
108.3266408304612
 21
356.7614220876116
 72
     1
 10
108.3266408304612
 20
356.7614220876116
 11
108.0264755932688
 21
355.9936071216249
 97
        3
330
153
330
152
330
1A0
 75
     1
 76
     0
 52
45.0
 41
0.1
 77
     0
 78
     1
 53
45.0
 43
0.0
 44
0.0
 45
-0.0707106781186548
 46
0.0707106781186548
 79
     0
 98
        1
 10
0.0
 20
0.0
  0
HATCH
  5
26C
330
71
100
AcDbEntity
  8
1
  6
Continuous
 62
     2
100
AcDbHatch
 10
0.0
 20
0.0
 30
0.0
210
0.0
220
0.0
230
1.0
  2
_USER
 70
     0
 71
     1
 91
        1
 92
        1
 93
        8
 72
     1
 10
104.1509234392128
 20
357.8258928359115
 11
104.1509234392128
 21
357.0406275297879
 72
     1
 10
104.1509234392128
 20
357.0406275297879
 11
104.9620224766874
 21
357.0406275297879
 72
     1
 10
104.9620224766874
 20
357.0406275297879
 11
104.9620224766874
 21
354.7720833121004
 72
     1
 10
104.9620224766874
 20
354.7720833121004
 11
106.1548151788539
 21
354.7720833121004
 72
     1
 10
106.1548151788539
 20
354.7720833121004
 11
106.1548151788539
 21
357.0406275297879
 72
     1
 10
106.1548151788539
 20
357.0406275297879
 11
106.9659142163264
 21
357.0406275297879
 72
     1
 10
106.9659142163264
 20
357.0406275297879
 11
106.9659142163264
 21
357.8258928359115
 72
     1
 10
106.9659142163264
 20
357.8258928359115
 11
104.1509234392128
 21
357.8258928359115
 97
        8
330
199
330
198
330
197
330
158
330
159
330
19B
330
15A
330
19A
 75
     1
 76
     0
 52
45.0
 41
0.1
 77
     0
 78
     1
 53
45.0
 43
0.0
 44
0.0
 45
-0.0707106781186548
 46
0.0707106781186548
 79
     0
 98
        1
 10
0.0
 20
0.0
  0
HATCH
  5
26D
330
71
100
AcDbEntity
  8
1
  6
Continuous
 62
     2
100
AcDbHatch
 10
0.0
 20
0.0
 30
0.0
210
0.0
220
0.0
230
1.0
  2
_USER
 70
     0
 71
     1
 91
        1
 92
        1
 93
        8
 72
     1
 10
104.1509234392128
 20
357.8258928359115
 11
104.1509234392128
 21
357.0406275297879
 72
     1
 10
104.1509234392128
 20
357.0406275297879
 11
104.9620224766874
 21
357.0406275297879
 72
     1
 10
104.9620224766874
 20
357.0406275297879
 11
104.9620224766874
 21
354.7720833121004
 72
     1
 10
104.9620224766874
 20
354.7720833121004
 11
106.1548151788539
 21
354.7720833121004
 72
     1
 10
106.1548151788539
 20
354.7720833121004
 11
106.1548151788539
 21
357.0406275297879
 72
     1
 10
106.1548151788539
 20
357.0406275297879
 11
106.9659142163264
 21
357.0406275297879
 72
     1
 10
106.9659142163264
 20
357.0406275297879
 11
106.9659142163264
 21
357.8258928359115
 72
     1
 10
106.9659142163264
 20
357.8258928359115
 11
104.1509234392128
 21
357.8258928359115
 97
        8
330
199
330
198
330
197
330
158
330
159
330
19B
330
15A
330
19A
 75
     1
 76
     0
 52
45.0
 41
0.1
 77
     0
 78
     1
 53
45.0
 43
0.0
 44
0.0
 45
-0.0707106781186548
 46
0.0707106781186548
 79
     0
 98
        1
 10
0.0
 20
0.0
  0
HATCH
  5
26E
330
71
100
AcDbEntity
  8
1
  6
Continuous
 62
     2
100
AcDbHatch
 10
0.0
 20
0.0
 30
0.0
210
0.0
220
0.0
230
1.0
  2
_USER
 70
     0
 71
     1
 91
        1
 92
        1
 93
       10
 72
     1
 10
106.8229300229519
 20
361.1850833120859
 11
105.6301373207854
 21
361.1850833120859
 72
     1
 10
105.6301373207854
 20
361.1850833120859
 11
105.6301373207854
 21
358.1312737882747
 72
     1
 10
105.6301373207854
 20
358.1312737882747
 11
106.8229300229519
 21
358.1312737882747
 72
     1
 10
106.8229300229519
 20
358.1312737882747
 11
106.8229300229519
 21
359.4400492984794
 72
     1
 10
106.8229300229519
 20
359.4400492984794
 11
108.0634344332059
 21
358.1312737882747
 72
     1
 10
108.0634344332059
 20
358.1312737882747
 11
109.2562271353725
 21
358.1312737882747
 72
     1
 10
109.2562271353725
 20
358.1312737882747
 11
109.2562271353725
 21
361.1850833120859
 72
     1
 10
109.2562271353725
 20
361.1850833120859
 11
108.0634344332059
 21
361.1850833120859
 72
     1
 10
108.0634344332059
 20
361.1850833120859
 11
108.0634344332059
 21
359.8763078018807
 72
     1
 10
108.0634344332059
 20
359.8763078018807
 11
106.8229300229519
 21
361.1850833120859
 97
       10
330
193
330
15D
330
15E
330
15F
330
160
330
196
330
15B
330
195
330
194
330
15C
 75
     1
 76
     0
 52
45.0
 41
0.1
 77
     0
 78
     1
 53
45.0
 43
0.0
 44
0.0
 45
-0.0707106781186548
 46
0.0707106781186548
 79
     0
 98
        1
 10
0.0
 20
0.0
  0
HATCH
  5
26F
330
71
100
AcDbEntity
  8
1
  6
Continuous
 62
     2
100
AcDbHatch
 10
0.0
 20
0.0
 30
0.0
210
0.0
220
0.0
230
1.0
  2
_USER
 70
     0
 71
     1
 91
        1
 92
        1
 93
       10
 72
     1
 10
106.8229300229519
 20
361.1850833120859
 11
105.6301373207854
 21
361.1850833120859
 72
     1
 10
105.6301373207854
 20
361.1850833120859
 11
105.6301373207854
 21
358.1312737882747
 72
     1
 10
105.6301373207854
 20
358.1312737882747
 11
106.8229300229519
 21
358.1312737882747
 72
     1
 10
106.8229300229519
 20
358.1312737882747
 11
106.8229300229519
 21
359.4400492984794
 72
     1
 10
106.8229300229519
 20
359.4400492984794
 11
108.0634344332059
 21
358.1312737882747
 72
     1
 10
108.0634344332059
 20
358.1312737882747
 11
109.2562271353725
 21
358.1312737882747
 72
     1
 10
109.2562271353725
 20
358.1312737882747
 11
109.2562271353725
 21
361.1850833120859
 72
     1
 10
109.2562271353725
 20
361.1850833120859
 11
108.0634344332059
 21
361.1850833120859
 72
     1
 10
108.0634344332059
 20
361.1850833120859
 11
108.0634344332059
 21
359.8763078018807
 72
     1
 10
108.0634344332059
 20
359.8763078018807
 11
106.8229300229519
 21
361.1850833120859
 97
       10
330
193
330
15D
330
15E
330
15F
330
160
330
196
330
15B
330
195
330
194
330
15C
 75
     1
 76
     0
 52
45.0
 41
0.1
 77
     0
 78
     1
 53
45.0
 43
0.0
 44
0.0
 45
-0.0707106781186548
 46
0.0707106781186548
 79
     0
 98
        1
 10
0.0
 20
0.0
  0
HATCH
  5
270
330
71
100
AcDbEntity
  8
1
  6
Continuous
 62
     2
100
AcDbHatch
 10
0.0
 20
0.0
 30
0.0
210
0.0
220
0.0
230
1.0
  2
_USER
 70
     0
 71
     1
 91
        1
 92
        1
 93
       10
 72
     1
 10
101.5744912025333
 20
357.8258928359115
 11
100.3816985003657
 21
357.8258928359115
 72
     1
 10
100.3816985003657
 20
357.8258928359115
 11
100.3816985003657
 21
354.7720833121004
 72
     1
 10
100.3816985003657
 20
354.7720833121004
 11
101.5744912025333
 21
354.7720833121004
 72
     1
 10
101.5744912025333
 20
354.7720833121004
 11
101.5744912025333
 21
356.080858822305
 72
     1
 10
101.5744912025333
 20
356.080858822305
 11
102.8149956127862
 21
354.7720833121004
 72
     1
 10
102.8149956127862
 20
354.7720833121004
 11
104.0077883149526
 21
354.7720833121004
 72
     1
 10
104.0077883149526
 20
354.7720833121004
 11
104.0077883149526
 21
357.8258928359115
 72
     1
 10
104.0077883149526
 20
357.8258928359115
 11
102.8149956127862
 21
357.8258928359115
 72
     1
 10
102.8149956127862
 20
357.8258928359115
 11
102.8149956127862
 21
356.5171173257064
 72
     1
 10
102.8149956127862
 20
356.5171173257064
 11
101.5744912025333
 21
357.8258928359115
 97
       10
330
162
330
163
330
164
330
190
330
165
330
166
330
18F
330
192
330
191
330
161
 75
     1
 76
     0
 52
45.0
 41
0.1
 77
     0
 78
     1
 53
45.0
 43
0.0
 44
0.0
 45
-0.0707106781186548
 46
0.0707106781186548
 79
     0
 98
        1
 10
0.0
 20
0.0
  0
HATCH
  5
271
330
71
100
AcDbEntity
  8
1
  6
Continuous
 62
     2
100
AcDbHatch
 10
0.0
 20
0.0
 30
0.0
210
0.0
220
0.0
230
1.0
  2
_USER
 70
     0
 71
     1
 91
        1
 92
        1
 93
       10
 72
     1
 10
101.5744912025333
 20
357.8258928359115
 11
100.3816985003657
 21
357.8258928359115
 72
     1
 10
100.3816985003657
 20
357.8258928359115
 11
100.3816985003657
 21
354.7720833121004
 72
     1
 10
100.3816985003657
 20
354.7720833121004
 11
101.5744912025333
 21
354.7720833121004
 72
     1
 10
101.5744912025333
 20
354.7720833121004
 11
101.5744912025333
 21
356.080858822305
 72
     1
 10
101.5744912025333
 20
356.080858822305
 11
102.8149956127862
 21
354.7720833121004
 72
     1
 10
102.8149956127862
 20
354.7720833121004
 11
104.0077883149526
 21
354.7720833121004
 72
     1
 10
104.0077883149526
 20
354.7720833121004
 11
104.0077883149526
 21
357.8258928359115
 72
     1
 10
104.0077883149526
 20
357.8258928359115
 11
102.8149956127862
 21
357.8258928359115
 72
     1
 10
102.8149956127862
 20
357.8258928359115
 11
102.8149956127862
 21
356.5171173257064
 72
     1
 10
102.8149956127862
 20
356.5171173257064
 11
101.5744912025333
 21
357.8258928359115
 97
       10
330
162
330
163
330
164
330
190
330
165
330
166
330
18F
330
192
330
191
330
161
 75
     1
 76
     0
 52
45.0
 41
0.1
 77
     0
 78
     1
 53
45.0
 43
0.0
 44
0.0
 45
-0.0707106781186548
 46
0.0707106781186548
 79
     0
 98
        1
 10
0.0
 20
0.0
  0
HATCH
  5
272
330
71
100
AcDbEntity
  8
1
  6
Continuous
 62
     2
100
AcDbHatch
 10
0.0
 20
0.0
 30
0.0
210
0.0
220
0.0
230
1.0
  2
_USER
 70
     0
 71
     1
 91
        1
 92
        1
 93
       12
 72
     1
 10
100.5726962635979
 20
361.1850833120859
 11
100.5726962635979
 21
358.1312737882747
 72
     1
 10
100.5726962635979
 20
358.1312737882747
 11
99.37990356143152
 21
358.1312737882747
 72
     1
 10
99.37990356143152
 20
358.1312737882747
 11
99.37990356143152
 21
359.2655458971185
 72
     1
 10
99.37990356143152
 20
359.2655458971185
 11
98.33024598352404
 21
359.2655458971185
 72
     1
 10
98.33024598352404
 20
359.2655458971185
 11
98.33024598352404
 21
358.1312737882747
 72
     1
 10
98.33024598352404
 20
358.1312737882747
 11
97.13745328135744
 21
358.1312737882747
 72
     1
 10
97.13745328135744
 20
358.1312737882747
 11
97.13745328135744
 21
361.1850833120859
 72
     1
 10
97.13745328135744
 20
361.1850833120859
 11
98.33024598352404
 21
361.1850833120859
 72
     1
 10
98.33024598352404
 20
361.1850833120859
 11
98.33024598352404
 21
360.1162499787513
 72
     1
 10
98.33024598352404
 20
360.1162499787513
 11
99.37990356143152
 21
360.1162499787513
 72
     1
 10
99.37990356143152
 20
360.1162499787513
 11
99.37990356143152
 21
361.1850833120859
 72
     1
 10
99.37990356143152
 20
361.1850833120859
 11
100.5726962635979
 21
361.1850833120859
 97
       12
330
18A
330
189
330
188
330
170
330
171
330
187
330
172
330
186
330
185
330
184
330
16E
330
16F
 75
     1
 76
     0
 52
45.0
 41
0.1
 77
     0
 78
     1
 53
45.0
 43
0.0
 44
0.0
 45
-0.0707106781186548
 46
0.0707106781186548
 79
     0
 98
        1
 10
0.0
 20
0.0
  0
HATCH
  5
273
330
71
100
AcDbEntity
  8
1
  6
Continuous
 62
     2
100
AcDbHatch
 10
0.0
 20
0.0
 30
0.0
210
0.0
220
0.0
230
1.0
  2
_USER
 70
     0
 71
     1
 91
        1
 92
        1
 93
       12
 72
     1
 10
100.5726962635979
 20
361.1850833120859
 11
100.5726962635979
 21
358.1312737882747
 72
     1
 10
100.5726962635979
 20
358.1312737882747
 11
99.37990356143152
 21
358.1312737882747
 72
     1
 10
99.37990356143152
 20
358.1312737882747
 11
99.37990356143152
 21
359.2655458971185
 72
     1
 10
99.37990356143152
 20
359.2655458971185
 11
98.33024598352404
 21
359.2655458971185
 72
     1
 10
98.33024598352404
 20
359.2655458971185
 11
98.33024598352404
 21
358.1312737882747
 72
     1
 10
98.33024598352404
 20
358.1312737882747
 11
97.13745328135744
 21
358.1312737882747
 72
     1
 10
97.13745328135744
 20
358.1312737882747
 11
97.13745328135744
 21
361.1850833120859
 72
     1
 10
97.13745328135744
 20
361.1850833120859
 11
98.33024598352404
 21
361.1850833120859
 72
     1
 10
98.33024598352404
 20
361.1850833120859
 11
98.33024598352404
 21
360.1162499787513
 72
     1
 10
98.33024598352404
 20
360.1162499787513
 11
99.37990356143152
 21
360.1162499787513
 72
     1
 10
99.37990356143152
 20
360.1162499787513
 11
99.37990356143152
 21
361.1850833120859
 72
     1
 10
99.37990356143152
 20
361.1850833120859
 11
100.5726962635979
 21
361.1850833120859
 97
       12
330
18A
330
189
330
188
330
170
330
171
330
187
330
172
330
186
330
185
330
184
330
16E
330
16F
 75
     1
 76
     0
 52
45.0
 41
0.1
 77
     0
 78
     1
 53
45.0
 43
0.0
 44
0.0
 45
-0.0707106781186548
 46
0.0707106781186548
 79
     0
 98
        1
 10
0.0
 20
0.0
  0
ENDBLK
  5
73
330
71
100
AcDbEntity
  8
0
100
AcDbBlockEnd
  0
BLOCK
  5
75
330
74
100
AcDbEntity
  8
0
100
AcDbBlockBegin
  2
_punkt
 70
     0
 10
212.4500000773869
 20
347.4785833120841
 30
0.0
  3
_punkt
  1

  0
LINE
  5
274
330
74
100
AcDbEntity
  8
1
  6
Continuous
 62
     2
100
AcDbLine
 10
212.4500000773869
 20
347.4785833120841
 30
0.0
 11
212.4500000773869
 21
342.478583312084
 31
0.0
  0
LINE
  5
275
330
74
100
AcDbEntity
  8
1
  6
Continuous
 62
     2
100
AcDbLine
 10
212.4500000773869
 20
347.4785833120841
 30
0.0
 11
217.4500000773858
 21
347.4785833120841
 31
0.0
  0
ENDBLK
  5
76
330
74
100
AcDbEntity
  8
0
100
AcDbBlockEnd
  0
BLOCK
  5
7A
330
77
100
AcDbEntity
  8
0
100
AcDbBlockBegin
  2
A4I_CS
 70
     0
 10
212.4500000773869
 20
342.478583312084
 30
0.0
  3
A4I_CS
  1

  0
INSERT
  5
78
330
77
100
AcDbEntity
  8
1
100
AcDbBlockReference
  2
_rahmen
 10
212.4500000773869
 20
342.478583312084
 30
0.0
  0
INSERT
  5
79
330
77
100
AcDbEntity
  8
1
100
AcDbBlockReference
  2
_punkt
 10
212.4500000773869
 20
347.4785833120841
 30
0.0
  0
ENDBLK
  5
7B
330
77
100
AcDbEntity
  8
0
100
AcDbBlockEnd
  0
BLOCK
  5
84
330
7C
100
AcDbEntity
  8
0
100
AcDbBlockBegin
  2
1
 70
     0
 10
0.0
 20
0.0
 30
0.0
  3
1
  1

  0
INSERT
  5
7D
330
7C
100
AcDbEntity
  8
0
100
AcDbBlockReference
  2
AllgSicht1
 10
129.4657883193759
 20
416.9999999999732
 30
0.0
  0
INSERT
  5
7E
330
7C
100
AcDbEntity
  8
0
100
AcDbBlockReference
  2
Drfsicht1
 10
25.00000000001
 20
428.9999999999997
 30
0.0
  0
INSERT
  5
7F
330
7C
100
AcDbEntity
  8
0
100
AcDbBlockReference
  2
Rckans1
 10
136.8999996185254
 20
474.6250003575979
 30
0.0
  0
INSERT
  5
80
330
7C
100
AcDbEntity
  8
0
100
AcDbBlockReference
  2
SA_Links1
 10
79.94999980926718
 20
474.6250003575978
 30
0.0
  0
INSERT
  5
81
330
7C
100
AcDbEntity
  8
0
100
AcDbBlockReference
  2
SA_Rechts1
 10
-36.94999980926497
 20
474.6250003575979
 30
0.0
  0
INSERT
  5
82
330
7C
100
AcDbEntity
  8
0
100
AcDbBlockReference
  2
Vordans1
 10
25.00000000001026
 20
474.6250003575978
 30
0.0
  0
INSERT
  5
83
330
7C
100
AcDbEntity
  8
0
100
AcDbBlockReference
  2
A4I_CS
 10
212.4500000773869
 20
342.478583312084
 30
0.0
  0
ENDBLK
  5
85
330
7C
100
AcDbEntity
  8
0
100
AcDbBlockEnd
  0
BLOCK
  5
DE
330
D5
100
AcDbEntity
  8
0
100
AcDbBlockBegin
  2
*D17
 70
     1
 10
0.0
 20
0.0
 30
0.0
  3
*D17
  1

  0
LINE
  5
D6
330
D5
100
AcDbEntity
  8
1
  6
Continuous
 62
     2
100
AcDbLine
 10
-11.9517259256235
 20
437.1000000238416
 30
0.0
 11
-11.9517259256235
 21
430.1000000238416
 31
0.0
  0
LINE
  5
D7
330
D5
100
AcDbEntity
  8
1
  6
Continuous
 62
     2
100
AcDbLine
 10
-11.9517259256235
 20
430.1000000238416
 30
0.0
 11
-11.9517259256235
 21
427.9000000238416
 31
0.0
  0
LINE
  5
D8
330
D5
100
AcDbEntity
  8
1
  6
Continuous
 62
     2
100
AcDbLine
 10
-11.9517259256235
 20
427.9000000238416
 30
0.0
 11
-11.9517259256235
 21
420.9000000238416
 31
0.0
  0
LINE
  5
D9
330
D5
100
AcDbEntity
  8
1
  6
Continuous
 62
     2
100
AcDbLine
 10
-3.45000034550328
 20
430.1000000238416
 30
0.0
 11
-13.4517259256235
 21
430.1000000238416
 31
0.0
  0
LINE
  5
DA
330
D5
100
AcDbEntity
  8
1
  6
Continuous
 62
     2
100
AcDbLine
 10
-3.45000034550328
 20
427.9000000238416
 30
0.0
 11
-13.4517259256235
 21
427.9000000238416
 31
0.0
  0
SOLID
  5
DB
330
D5
100
AcDbEntity
  8
1
 62
     2
100
AcDbTrace
 10
-12.41250966717939
 20
433.6000000238416
 30
0.0
 11
-11.49094218406761
 21
433.6000000238416
 31
0.0
 12
-11.9517259256235
 22
430.1000000238416
 32
0.0
 13
-11.9517259256235
 23
430.1000000238416
 33
0.0
  0
SOLID
  5
DC
330
D5
100
AcDbEntity
  8
1
 62
     2
100
AcDbTrace
 10
-11.49094218406761
 20
424.4000000238416
 30
0.0
 11
-12.41250966717939
 21
424.4000000238416
 31
0.0
 12
-11.9517259256235
 22
427.9000000238416
 32
0.0
 13
-11.9517259256235
 23
427.9000000238416
 33
0.0
  0
MTEXT
  5
DD
330
D5
100
AcDbEntity
  8
1
 62
     3
100
AcDbMText
 10
-14.3017259256235
 20
426.6980938926199
 30
0.0
 40
3.5
 41
0.0
 71
     7
 72
     1
  1
2,2
  7
CONVERTER_11
 11
0.0
 21
1.0
 31
0.0
 73
     1
 44
0.60024009603842
  0
ENDBLK
  5
DF
330
D5
100
AcDbEntity
  8
0
100
AcDbBlockEnd
  0
BLOCK
  5
12E
330
127
100
AcDbEntity
  8
0
100
AcDbBlockBegin
  2
*D18
 70
     1
 10
0.0
 20
0.0
 30
0.0
  3
*D18
  1

  0
LINE
  5
128
330
127
100
AcDbEntity
  8
1
  6
Continuous
 62
     2
100
AcDbLine
 10
-2.95000034550302
 20
441.645354036523
 30
0.0
 11
52.94999965449826
 21
441.645354036523
 31
0.0
  0
LINE
  5
129
330
127
100
AcDbEntity
  8
1
  6
Continuous
 62
     2
100
AcDbLine
 10
-2.95000034550302
 20
459.5999998379588
 30
0.0
 11
-2.95000034550302
 21
440.145354036523
 31
0.0
  0
LINE
  5
12A
330
127
100
AcDbEntity
  8
1
  6
Continuous
 62
     2
100
AcDbLine
 10
52.94999965449826
 20
462.5999998379515
 30
0.0
 11
52.94999965449826
 21
440.145354036523
 31
0.0
  0
SOLID
  5
12B
330
127
100
AcDbEntity
  8
1
 62
     2
100
AcDbTrace
 10
0.54999965449698
 20
442.1061377780788
 30
0.0
 11
0.54999965449698
 21
441.1845702949671
 31
0.0
 12
-2.95000034550302
 22
441.645354036523
 32
0.0
 13
-2.95000034550302
 23
441.645354036523
 33
0.0
  0
SOLID
  5
12C
330
127
100
AcDbEntity
  8
1
 62
     2
100
AcDbTrace
 10
49.44999965449826
 20
441.1845702949671
 30
0.0
 11
49.44999965449826
 21
442.1061377780788
 31
0.0
 12
52.94999965449826
 22
441.645354036523
 32
0.0
 13
52.94999965449826
 23
441.645354036523
 33
0.0
  0
MTEXT
  5
12D
330
127
100
AcDbEntity
  8
1
 62
     3
100
AcDbMText
 10
21.98254172250083
 20
443.995354036523
 30
0.0
 40
3.5
 41
0.0
 71
     7
 72
     1
  1
55,9
  7
CONVERTER_11
 11
0.9999999999970619
 21
2.424068405545306E-6
 31
0.0
 73
     1
 44
0.60024009603842
  0
ENDBLK
  5
12F
330
127
100
AcDbEntity
  8
0
100
AcDbBlockEnd
  0
BLOCK
  5
139
330
132
100
AcDbEntity
  8
0
100
AcDbBlockBegin
  2
*D19
 70
     1
 10
0.0
 20
0.0
 30
0.0
  3
*D19
  1

  0
LINE
  5
133
330
132
100
AcDbEntity
  8
1
  6
Continuous
 62
     2
100
AcDbLine
 10
-11.22253056377617
 20
489.1499998379523
 30
0.0
 11
-11.22253056377617
 21
460.0999998379588
 31
0.0
  0
LINE
  5
134
330
132
100
AcDbEntity
  8
1
  6
Continuous
 62
     2
100
AcDbLine
 10
-1.48980611615616
 20
489.1499998379523
 30
0.0
 11
-12.72253056377617
 21
489.1499998379523
 31
0.0
  0
LINE
  5
135
330
132
100
AcDbEntity
  8
1
  6
Continuous
 62
     2
100
AcDbLine
 10
-3.45000034550302
 20
460.0999998379588
 30
0.0
 11
-12.72253056377617
 21
460.0999998379588
 31
0.0
  0
SOLID
  5
136
330
132
100
AcDbEntity
  8
1
 62
     2
100
AcDbTrace
 10
-10.76174682222029
 20
485.6499998379523
 30
0.0
 11
-11.68331430533206
 21
485.6499998379523
 31
0.0
 12
-11.22253056377617
 22
489.1499998379523
 32
0.0
 13
-11.22253056377617
 23
489.1499998379523
 33
0.0
  0
SOLID
  5
137
330
132
100
AcDbEntity
  8
1
 62
     2
100
AcDbTrace
 10
-11.68331430533206
 20
463.5999998379588
 30
0.0
 11
-10.76174682222028
 21
463.5999998379588
 31
0.0
 12
-11.22253056377617
 22
460.0999998379588
 32
0.0
 13
-11.22253056377617
 23
460.0999998379588
 33
0.0
  0
MTEXT
  5
138
330
132
100
AcDbEntity
  8
1
 62
     3
100
AcDbMText
 10
-13.57253056377617
 20
468.660576507703
 30
0.0
 40
3.5
 41
0.0
 71
     7
 72
     1
  1
29,05
  7
CONVERTER_11
 11
0.0
 21
1.0
 31
0.0
 73
     1
 44
0.60024009603842
  0
ENDBLK
  5
13A
330
132
100
AcDbEntity
  8
0
100
AcDbBlockEnd
  0
ENDSEC
  0
SECTION
  2
ENTITIES
  0
INSERT
  5
86
330
1F
100
AcDbEntity
  8
1
100
AcDbBlockReference
  2
1
 10
0.0
 20
0.0
 30
0.0
  0
ENDSEC
  0
SECTION
  2
OBJECTS
  0
DICTIONARY
  5
C
330
0
100
AcDbDictionary
281
     1
  3
ACAD_GROUP
350
D
  3
ACAD_LAYOUT
350
1A
  3
ACAD_MATERIAL
350
3B
  3
ACAD_MLEADERSTYLE
350
29D
  3
ACAD_MLINESTYLE
350
17
  3
ACAD_PLOTSETTINGS
350
19
  3
ACAD_PLOTSTYLENAME
350
E
  3
ACAD_TABLESTYLE
350
29C
  3
ACAD_VISUALSTYLE
350
2A
  0
DICTIONARY
  5
D
102
{ACAD_REACTORS
330
C
102
}
330
C
100
AcDbDictionary
281
     1
  0
DICTIONARY
  5
1A
102
{ACAD_REACTORS
330
C
102
}
330
C
100
AcDbDictionary
281
     1
  3
Layout1
350
1E
  3
Layout2
350
26
  3
Model
350
22
  0
DICTIONARY
  5
3B
102
{ACAD_REACTORS
330
C
102
}
330
C
100
AcDbDictionary
281
     1
  3
ByBlock
350
3D
  3
ByLayer
350
3C
  3
Global
350
3E
  0
DICTIONARY
  5
29D
102
{ACAD_REACTORS
330
C
102
}
330
C
100
AcDbDictionary
281
     1
  0
DICTIONARY
  5
17
102
{ACAD_REACTORS
330
C
102
}
330
C
100
AcDbDictionary
281
     1
  3
Standard
350
18
  0
DICTIONARY
  5
19
102
{ACAD_REACTORS
330
C
102
}
330
C
100
AcDbDictionary
281
     1
  0
ACDBDICTIONARYWDFLT
  5
E
102
{ACAD_REACTORS
330
C
102
}
330
C
100
AcDbDictionary
281
     1
  3
Normal
350
F
100
AcDbDictionaryWithDefault
340
F
  0
DICTIONARY
  5
29C
102
{ACAD_REACTORS
330
C
102
}
330
C
100
AcDbDictionary
281
     1
  0
DICTIONARY
  5
2A
102
{ACAD_REACTORS
330
C
102
}
330
C
100
AcDbDictionary
281
     1
  3
2dWireframe
350
2F
  3
3D Hidden
350
31
  3
3dWireframe
350
30
  3
Basic
350
32
  3
Brighten
350
36
  3
ColorChange
350
3A
  3
Conceptual
350
34
  3
Dim
350
35
  3
Facepattern
350
39
  3
Flat
350
2B
  3
FlatWithEdges
350
2C
  3
Gouraud
350
2D
  3
GouraudWithEdges
350
2E
  3
Linepattern
350
38
  3
Realistic
350
33
  3
Thicken
350
37
  0
LAYOUT
  5
1E
102
{ACAD_REACTORS
330
1A
102
}
330
1A
100
AcDbPlotSettings
  1

  2
none_device
  4

  6

 40
0.0
 41
0.0
 42
0.0
 43
0.0
 44
0.0
 45
0.0
 46
0.0
 47
0.0
 48
0.0
 49
0.0
140
0.0
141
0.0
142
1.0
143
1.0
 70
   688
 72
     0
 73
     0
 74
     5
  7

 75
    16
 76
     0
 77
     2
 78
   300
147
1.0
148
0.0
149
0.0
100
AcDbLayout
  1
Layout1
 70
     1
 71
     1
 10
0.0
 20
0.0
 11
12.0
 21
9.0
 12
0.0
 22
0.0
 32
0.0
 14
1.00000000000000E+20
 24
1.00000000000000E+20
 34
1.00000000000000E+20
 15
-1.00000000000000E+20
 25
-1.00000000000000E+20
 35
-1.00000000000000E+20
146
0.0
 13
0.0
 23
0.0
 33
0.0
 16
1.0
 26
0.0
 36
0.0
 17
0.0
 27
1.0
 37
0.0
 76
     0
330
1B
  0
LAYOUT
  5
26
102
{ACAD_REACTORS
330
1A
102
}
330
1A
100
AcDbPlotSettings
  1

  2
none_device
  4

  6

 40
0.0
 41
0.0
 42
0.0
 43
0.0
 44
0.0
 45
0.0
 46
0.0
 47
0.0
 48
0.0
 49
0.0
140
0.0
141
0.0
142
1.0
143
1.0
 70
   688
 72
     0
 73
     0
 74
     5
  7

 75
    16
 76
     0
 77
     2
 78
   300
147
1.0
148
0.0
149
0.0
100
AcDbLayout
  1
Layout2
 70
     1
 71
     2
 10
0.0
 20
0.0
 11
0.0
 21
0.0
 12
0.0
 22
0.0
 32
0.0
 14
0.0
 24
0.0
 34
0.0
 15
0.0
 25
0.0
 35
0.0
146
0.0
 13
0.0
 23
0.0
 33
0.0
 16
1.0
 26
0.0
 36
0.0
 17
0.0
 27
1.0
 37
0.0
 76
     0
330
23
  0
LAYOUT
  5
22
102
{ACAD_REACTORS
330
1A
102
}
330
1A
100
AcDbPlotSettings
  1

  2
none_device
  4

  6

 40
0.0
 41
0.0
 42
0.0
 43
0.0
 44
0.0
 45
0.0
 46
0.0
 47
0.0
 48
0.0
 49
0.0
140
0.0
141
0.0
142
1.0
143
1.0
 70
  1712
 72
     0
 73
     0
 74
     0
  7

 75
     0
 76
     0
 77
     2
 78
   300
147
1.0
148
0.0
149
0.0
100
AcDbLayout
  1
Model
 70
     1
 71
     0
 10
0.0
 20
0.0
 11
12.0
 21
9.0
 12
0.0
 22
0.0
 32
0.0
 14
-79.54999992261224
 24
342.478583312084
 34
0.0
 15
217.4500000773858
 25
552.4785833120841
 35
0.0
146
0.0
 13
0.0
 23
0.0
 33
0.0
 16
1.0
 26
0.0
 36
0.0
 17
0.0
 27
1.0
 37
0.0
 76
     0
330
1F
331
29
  0
MATERIAL
  5
3D
102
{ACAD_REACTORS
330
3B
102
}
102
{ACAD_XDICTIONARY
360
298
102
}
330
3B
100
AcDbMaterial
  1
ByBlock
  0
MATERIAL
  5
3C
102
{ACAD_REACTORS
330
3B
102
}
102
{ACAD_XDICTIONARY
360
296
102
}
330
3B
100
AcDbMaterial
  1
ByLayer
  0
MATERIAL
  5
3E
102
{ACAD_REACTORS
330
3B
102
}
102
{ACAD_XDICTIONARY
360
29A
102
}
330
3B
100
AcDbMaterial
  1
Global
  0
MLINESTYLE
  5
18
102
{ACAD_REACTORS
330
17
102
}
330
17
100
AcDbMlineStyle
  2
Standard
 70
     0
  3

 62
   256
 51
90.0
 52
90.0
 71
     2
 49
0.5
 62
   256
  6
BYLAYER
 49
-0.5
 62
   256
  6
BYLAYER
  0
ACDBPLACEHOLDER
  5
F
102
{ACAD_REACTORS
330
E
102
}
330
E
  0
VISUALSTYLE
  5
2F
102
{ACAD_REACTORS
330
2A
102
}
102
{ACAD_XDICTIONARY
360
27E
102
}
330
2A
100
AcDbVisualStyle
  2
2dWireframe
 70
     4
 71
     0
 72
     2
 73
     0
 90
        0
 40
-0.6
 41
-30.0
 62
     5
 63
     7
421
 16777215
 74
     1
 91
        4
 64
     7
 65
   257
 75
     1
175
     1
 42
1.0
 92
        0
 66
   257
 43
1.0
 76
     1
 77
     6
 78
     2
 67
     7
 79
     5
170
     0
171
     0
290
     0
174
     0
 93
        1
 44
0.0
173
     0
291
     0
 45
0.0
1001
ACAD
1000
AcDbSavedByObjectVersion
1070
     0
  0
VISUALSTYLE
  5
31
102
{ACAD_REACTORS
330
2A
102
}
102
{ACAD_XDICTIONARY
360
282
102
}
330
2A
100
AcDbVisualStyle
  2
3D Hidden
 70
     6
 71
     1
 72
     2
 73
     2
 90
        0
 40
-0.6
 41
-30.0
 62
     5
 63
     7
421
 16777215
 74
     2
 91
        2
 64
     7
 65
   257
 75
     2
175
     1
 42
40.0
 92
        0
 66
   257
 43
1.0
 76
     1
 77
     6
 78
     2
 67
     7
 79
     3
170
     0
171
     0
290
     0
174
     0
 93
        1
 44
0.0
173
     0
291
     0
 45
0.0
1001
ACAD
1000
AcDbSavedByObjectVersion
1070
     0
  0
VISUALSTYLE
  5
30
102
{ACAD_REACTORS
330
2A
102
}
102
{ACAD_XDICTIONARY
360
280
102
}
330
2A
100
AcDbVisualStyle
  2
3dWireframe
 70
     5
 71
     0
 72
     2
 73
     0
 90
        0
 40
-0.6
 41
-30.0
 62
     5
 63
     7
421
 16777215
 74
     1
 91
        4
 64
     7
 65
   257
 75
     1
175
     1
 42
1.0
 92
        0
 66
   257
 43
1.0
 76
     1
 77
     6
 78
     2
 67
     7
 79
     5
170
     0
171
     0
290
     0
174
     0
 93
        1
 44
0.0
173
     0
291
     0
 45
0.0
1001
ACAD
1000
AcDbSavedByObjectVersion
1070
     0
  0
VISUALSTYLE
  5
32
102
{ACAD_REACTORS
330
2A
102
}
102
{ACAD_XDICTIONARY
360
284
102
}
330
2A
100
AcDbVisualStyle
  2
Basic
 70
     7
 71
     1
 72
     0
 73
     1
 90
        0
 40
-0.6
 41
-30.0
 62
     5
 63
     7
421
 16777215
 74
     0
 91
        4
 64
     7
 65
   257
 75
     1
175
     1
 42
1.0
 92
        8
 66
     7
 43
1.0
 76
     1
 77
     6
 78
     2
 67
     7
 79
     5
170
     0
171
     0
290
     0
174
     0
 93
        1
 44
0.0
173
     0
291
     1
 45
0.0
1001
ACAD
1000
AcDbSavedByObjectVersion
1070
     0
  0
VISUALSTYLE
  5
36
102
{ACAD_REACTORS
330
2A
102
}
102
{ACAD_XDICTIONARY
360
28C
102
}
330
2A
100
AcDbVisualStyle
  2
Brighten
 70
    12
 71
     2
 72
     2
 73
     0
 90
        0
 40
-0.6
 41
-30.0
 62
     5
 63
     7
421
 16777215
 74
     1
 91
        4
 64
     7
 65
   257
 75
     1
175
     1
 42
1.0
 92
        8
 66
     7
 43
1.0
 76
     1
 77
     6
 78
     2
 67
     7
 79
     5
170
     0
171
     0
290
     0
174
     0
 93
        1
 44
50.0
173
     0
291
     1
 45
0.0
1001
ACAD
1000
AcDbSavedByObjectVersion
1070
     0
  0
VISUALSTYLE
  5
3A
102
{ACAD_REACTORS
330
2A
102
}
102
{ACAD_XDICTIONARY
360
294
102
}
330
2A
100
AcDbVisualStyle
  2
ColorChange
 70
    16
 71
     2
 72
     2
 73
     3
 90
        0
 40
-0.6
 41
-30.0
 62
     5
 63
     8
421
  8421504
 74
     1
 91
        4
 64
     7
 65
   257
 75
     1
175
     1
 42
1.0
 92
        8
 66
     8
424
  8421504
 43
1.0
 76
     1
 77
     6
 78
     2
 67
     7
 79
     5
170
     0
171
     0
290
     0
174
     0
 93
        1
 44
0.0
173
     0
291
     1
 45
0.0
1001
ACAD
1000
AcDbSavedByObjectVersion
1070
     0
  0
VISUALSTYLE
  5
34
102
{ACAD_REACTORS
330
2A
102
}
102
{ACAD_XDICTIONARY
360
288
102
}
330
2A
100
AcDbVisualStyle
  2
Conceptual
 70
     9
 71
     3
 72
     2
 73
     0
 90
        0
 40
-0.6
 41
-30.0
 62
     5
 63
     7
421
 16777215
 74
     2
 91
        2
 64
     7
 65
   257
 75
     1
175
     1
 42
40.0
 92
        8
 66
     7
 43
1.0
 76
     1
 77
     6
 78
     2
 67
     7
 79
     3
170
     0
171
     0
290
     0
174
     0
 93
        1
 44
0.0
173
     0
291
     0
 45
0.0
1001
ACAD
1000
AcDbSavedByObjectVersion
1070
     0
  0
VISUALSTYLE
  5
35
102
{ACAD_REACTORS
330
2A
102
}
102
{ACAD_XDICTIONARY
360
28A
102
}
330
2A
100
AcDbVisualStyle
  2
Dim
 70
    11
 71
     2
 72
     2
 73
     0
 90
        0
 40
-0.6
 41
-30.0
 62
     5
 63
     7
421
 16777215
 74
     1
 91
        4
 64
     7
 65
   257
 75
     1
175
     1
 42
1.0
 92
        8
 66
     7
 43
1.0
 76
     1
 77
     6
 78
     2
 67
     7
 79
     5
170
     0
171
     0
290
     0
174
     0
 93
        1
 44
-50.0
173
     0
291
     1
 45
0.0
1001
ACAD
1000
AcDbSavedByObjectVersion
1070
     0
  0
VISUALSTYLE
  5
39
102
{ACAD_REACTORS
330
2A
102
}
102
{ACAD_XDICTIONARY
360
292
102
}
330
2A
100
AcDbVisualStyle
  2
Facepattern
 70
    15
 71
     2
 72
     2
 73
     0
 90
        0
 40
-0.6
 41
-30.0
 62
     5
 63
     7
421
 16777215
 74
     1
 91
        4
 64
     7
 65
   257
 75
     1
175
     1
 42
1.0
 92
        8
 66
     7
 43
1.0
 76
     1
 77
     6
 78
     2
 67
     7
 79
     5
170
     0
171
     0
290
     0
174
     0
 93
        1
 44
0.0
173
     0
291
     1
 45
0.0
1001
ACAD
1000
AcDbSavedByObjectVersion
1070
     0
  0
VISUALSTYLE
  5
2B
102
{ACAD_REACTORS
330
2A
102
}
102
{ACAD_XDICTIONARY
360
276
102
}
330
2A
100
AcDbVisualStyle
  2
Flat
 70
     0
 71
     2
 72
     1
 73
     1
 90
        2
 40
-0.6
 41
30.0
 62
     5
 63
     7
421
 16777215
 74
     0
 91
        4
 64
     7
 65
   257
 75
     1
175
     1
 42
1.0
 92
        8
 66
     7
 43
1.0
 76
     1
 77
     6
 78
     2
 67
     7
 79
     5
170
     0
171
     0
290
     0
174
     0
 93
       13
 44
0.0
173
     0
291
     1
 45
0.0
1001
ACAD
1000
AcDbSavedByObjectVersion
1070
     0
  0
VISUALSTYLE
  5
2C
102
{ACAD_REACTORS
330
2A
102
}
102
{ACAD_XDICTIONARY
360
278
102
}
330
2A
100
AcDbVisualStyle
  2
FlatWithEdges
 70
     1
 71
     2
 72
     1
 73
     1
 90
        2
 40
-0.6
 41
30.0
 62
     5
 63
     7
421
 16777215
 74
     1
 91
        4
 64
     7
 65
   257
 75
     1
175
     1
 42
1.0
 92
        0
 66
   257
 43
1.0
 76
     1
 77
     6
 78
     2
 67
     7
 79
     5
170
     0
171
     0
290
     0
174
     0
 93
       13
 44
0.0
173
     0
291
     1
 45
0.0
1001
ACAD
1000
AcDbSavedByObjectVersion
1070
     0
  0
VISUALSTYLE
  5
2D
102
{ACAD_REACTORS
330
2A
102
}
102
{ACAD_XDICTIONARY
360
27A
102
}
330
2A
100
AcDbVisualStyle
  2
Gouraud
 70
     2
 71
     2
 72
     2
 73
     1
 90
        2
 40
-0.6
 41
30.0
 62
     5
 63
     7
421
 16777215
 74
     0
 91
        4
 64
     7
 65
   257
 75
     1
175
     1
 42
1.0
 92
        0
 66
     7
 43
1.0
 76
     1
 77
     6
 78
     2
 67
     7
 79
     5
170
     0
171
     0
290
     0
174
     0
 93
       13
 44
0.0
173
     0
291
     1
 45
0.0
1001
ACAD
1000
AcDbSavedByObjectVersion
1070
     0
  0
VISUALSTYLE
  5
2E
102
{ACAD_REACTORS
330
2A
102
}
102
{ACAD_XDICTIONARY
360
27C
102
}
330
2A
100
AcDbVisualStyle
  2
GouraudWithEdges
 70
     3
 71
     2
 72
     2
 73
     1
 90
        2
 40
-0.6
 41
30.0
 62
     5
 63
     7
421
 16777215
 74
     1
 91
        4
 64
     7
 65
   257
 75
     1
175
     1
 42
1.0
 92
        0
 66
   257
 43
1.0
 76
     1
 77
     6
 78
     2
 67
     7
 79
     5
170
     0
171
     0
290
     0
174
     0
 93
       13
 44
0.0
173
     0
291
     1
 45
0.0
1001
ACAD
1000
AcDbSavedByObjectVersion
1070
     0
  0
VISUALSTYLE
  5
38
102
{ACAD_REACTORS
330
2A
102
}
102
{ACAD_XDICTIONARY
360
290
102
}
330
2A
100
AcDbVisualStyle
  2
Linepattern
 70
    14
 71
     2
 72
     2
 73
     0
 90
        0
 40
-0.6
 41
-30.0
 62
     5
 63
     7
421
 16777215
 74
     1
 91
        4
 64
     7
 65
   257
 75
     7
175
     7
 42
1.0
 92
        8
 66
     7
 43
1.0
 76
     1
 77
     6
 78
     2
 67
     7
 79
     5
170
     0
171
     0
290
     0
174
     0
 93
        1
 44
0.0
173
     0
291
     1
 45
0.0
1001
ACAD
1000
AcDbSavedByObjectVersion
1070
     0
  0
VISUALSTYLE
  5
33
102
{ACAD_REACTORS
330
2A
102
}
102
{ACAD_XDICTIONARY
360
286
102
}
330
2A
100
AcDbVisualStyle
  2
Realistic
 70
     8
 71
     2
 72
     2
 73
     0
 90
        0
 40
-0.6
 41
-30.0
 62
     5
 63
     7
421
 16777215
 74
     1
 91
        0
 64
     7
 65
   257
 75
     1
175
     1
 42
1.0
 92
        8
 66
     8
424
  7895160
 43
1.0
 76
     1
 77
     6
 78
     2
 67
     7
 79
     5
170
     0
171
     0
290
     0
174
     0
 93
       13
 44
0.0
173
     0
291
     0
 45
0.0
1001
ACAD
1000
AcDbSavedByObjectVersion
1070
     0
  0
VISUALSTYLE
  5
37
102
{ACAD_REACTORS
330
2A
102
}
102
{ACAD_XDICTIONARY
360
28E
102
}
330
2A
100
AcDbVisualStyle
  2
Thicken
 70
    13
 71
     2
 72
     2
 73
     0
 90
        0
 40
-0.6
 41
-30.0
 62
     5
 63
     7
421
 16777215
 74
     1
 91
        4
 64
     7
 65
   257
 75
     1
175
     1
 42
1.0
 92
       12
 66
     7
 43
1.0
 76
     1
 77
     6
 78
     2
 67
     7
 79
     5
170
     0
171
     0
290
     0
174
     0
 93
        1
 44
0.0
173
     0
291
     1
 45
0.0
1001
ACAD
1000
AcDbSavedByObjectVersion
1070
     0
  0
DICTIONARY
  5
298
330
3D
100
AcDbDictionary
280
     1
281
     1
  3
ACAD_XREC_ROUNDTRIP
360
299
  0
DICTIONARY
  5
296
330
3C
100
AcDbDictionary
280
     1
281
     1
  3
ACAD_XREC_ROUNDTRIP
360
297
  0
DICTIONARY
  5
29A
330
3E
100
AcDbDictionary
280
     1
281
     1
  3
ACAD_XREC_ROUNDTRIP
360
29B
  0
DICTIONARY
  5
27E
330
2F
100
AcDbDictionary
280
     1
281
     1
  3
ACAD_XREC_ROUNDTRIP
360
27F
  0
DICTIONARY
  5
282
330
31
100
AcDbDictionary
280
     1
281
     1
  3
ACAD_XREC_ROUNDTRIP
360
283
  0
DICTIONARY
  5
280
330
30
100
AcDbDictionary
280
     1
281
     1
  3
ACAD_XREC_ROUNDTRIP
360
281
  0
DICTIONARY
  5
284
330
32
100
AcDbDictionary
280
     1
281
     1
  3
ACAD_XREC_ROUNDTRIP
360
285
  0
DICTIONARY
  5
28C
330
36
100
AcDbDictionary
280
     1
281
     1
  3
ACAD_XREC_ROUNDTRIP
360
28D
  0
DICTIONARY
  5
294
330
3A
100
AcDbDictionary
280
     1
281
     1
  3
ACAD_XREC_ROUNDTRIP
360
295
  0
DICTIONARY
  5
288
330
34
100
AcDbDictionary
280
     1
281
     1
  3
ACAD_XREC_ROUNDTRIP
360
289
  0
DICTIONARY
  5
28A
330
35
100
AcDbDictionary
280
     1
281
     1
  3
ACAD_XREC_ROUNDTRIP
360
28B
  0
DICTIONARY
  5
292
330
39
100
AcDbDictionary
280
     1
281
     1
  3
ACAD_XREC_ROUNDTRIP
360
293
  0
DICTIONARY
  5
276
330
2B
100
AcDbDictionary
280
     1
281
     1
  3
ACAD_XREC_ROUNDTRIP
360
277
  0
DICTIONARY
  5
278
330
2C
100
AcDbDictionary
280
     1
281
     1
  3
ACAD_XREC_ROUNDTRIP
360
279
  0
DICTIONARY
  5
27A
330
2D
100
AcDbDictionary
280
     1
281
     1
  3
ACAD_XREC_ROUNDTRIP
360
27B
  0
DICTIONARY
  5
27C
330
2E
100
AcDbDictionary
280
     1
281
     1
  3
ACAD_XREC_ROUNDTRIP
360
27D
  0
DICTIONARY
  5
290
330
38
100
AcDbDictionary
280
     1
281
     1
  3
ACAD_XREC_ROUNDTRIP
360
291
  0
DICTIONARY
  5
286
330
33
100
AcDbDictionary
280
     1
281
     1
  3
ACAD_XREC_ROUNDTRIP
360
287
  0
DICTIONARY
  5
28E
330
37
100
AcDbDictionary
280
     1
281
     1
  3
ACAD_XREC_ROUNDTRIP
360
28F
  0
XRECORD
  5
299
102
{ACAD_REACTORS
330
298
102
}
330
298
100
AcDbXrecord
280
     1
102
MATERIAL
148
0.0
149
0.0
149
0.0
 93
        0
 94
      127
282
     0
 72
     1
 77
     1
171
     1
175
     1
179
     1
273
     0
  0
XRECORD
  5
297
102
{ACAD_REACTORS
330
296
102
}
330
296
100
AcDbXrecord
280
     1
102
MATERIAL
148
0.0
149
0.0
149
0.0
 93
        0
 94
      127
282
     0
 72
     1
 77
     1
171
     1
175
     1
179
     1
273
     0
  0
XRECORD
  5
29B
102
{ACAD_REACTORS
330
29A
102
}
330
29A
100
AcDbXrecord
280
     1
102
MATERIAL
148
0.0
149
0.0
149
0.0
 93
        0
 94
      127
282
     0
 72
     1
 77
     1
171
     1
175
     1
179
     1
273
     0
  0
XRECORD
  5
27F
102
{ACAD_REACTORS
330
27E
102
}
330
27E
100
AcDbXrecord
280
     1
102
RTVSPropertyOp0
 70
     1
102
RTVSPropertyOp1
 70
     1
102
RTVSPropertyOp2
 70
     1
102
RTVSPropertyOp3
 70
     1
102
RTVSPropertyOp4
 70
     1
102
RTVSPropertyOp5
 70
     1
102
RTVSPropertyOp6
 70
     1
102
RTVSPropertyOp7
 70
     1
102
RTVSPropertyOp8
 70
     1
102
RTVSPropertyOp9
 70
     1
102
RTVSPropertyOp10
 70
     1
102
RTVSPropertyOp11
 70
     1
102
RTVSPropertyOp12
 70
     1
102
RTVSPropertyOp13
 70
     1
102
RTVSPropertyOp14
 70
     1
102
RTVSPropertyOp15
 70
     1
102
RTVSPropertyOp16
 70
     1
102
RTVSPropertyOp17
 70
     1
102
RTVSPropertyOp18
 70
     1
102
RTVSPropertyOp19
 70
     1
102
RTVSPropertyOp20
 70
     1
102
RTVSPropertyOp21
 70
     1
102
RTVSPropertyOp22
 70
     1
102
RTVSPropertyOp23
 70
     1
102
RTVSPropertyOp24
 70
     1
102
RTVSPropertyOp25
 70
     1
102
RTVSPropertyOp26
 70
     1
102
RTVSPropertyOp27
 70
     1
102
RTVSPropertyOp28
 70
     1
102
RTVSPropertyOp29
 70
     1
102
RTVSPropertyOp30
 70
     1
102
RTVSPropertyOp31
 70
     1
102
RTVSPropertyOp32
 70
     1
  0
XRECORD
  5
283
102
{ACAD_REACTORS
330
282
102
}
330
282
100
AcDbXrecord
280
     1
102
RTVSPropertyOp0
 70
     1
102
RTVSPropertyOp1
 70
     1
102
RTVSPropertyOp2
 70
     1
102
RTVSPropertyOp3
 70
     1
102
RTVSPropertyOp4
 70
     1
102
RTVSPropertyOp5
 70
     1
102
RTVSPropertyOp6
 70
     1
102
RTVSPropertyOp7
 70
     1
102
RTVSPropertyOp8
 70
     1
102
RTVSPropertyOp9
 70
     1
102
RTVSPropertyOp10
 70
     1
102
RTVSPropertyOp11
 70
     1
102
RTVSPropertyOp12
 70
     1
102
RTVSPropertyOp13
 70
     1
102
RTVSPropertyOp14
 70
     1
102
RTVSPropertyOp15
 70
     1
102
RTVSPropertyOp16
 70
     1
102
RTVSPropertyOp17
 70
     1
102
RTVSPropertyOp18
 70
     1
102
RTVSPropertyOp19
 70
     1
102
RTVSPropertyOp20
 70
     1
102
RTVSPropertyOp21
 70
     1
102
RTVSPropertyOp22
 70
     1
102
RTVSPropertyOp23
 70
     1
102
RTVSPropertyOp24
 70
     1
102
RTVSPropertyOp25
 70
     1
102
RTVSPropertyOp26
 70
     1
102
RTVSPropertyOp27
 70
     1
102
RTVSPropertyOp28
 70
     1
102
RTVSPropertyOp29
 70
     1
102
RTVSPropertyOp30
 70
     1
102
RTVSPropertyOp31
 70
     1
102
RTVSPropertyOp32
 70
     1
  0
XRECORD
  5
281
102
{ACAD_REACTORS
330
280
102
}
330
280
100
AcDbXrecord
280
     1
102
RTVSPropertyOp0
 70
     1
102
RTVSPropertyOp1
 70
     1
102
RTVSPropertyOp2
 70
     1
102
RTVSPropertyOp3
 70
     1
102
RTVSPropertyOp4
 70
     1
102
RTVSPropertyOp5
 70
     1
102
RTVSPropertyOp6
 70
     1
102
RTVSPropertyOp7
 70
     1
102
RTVSPropertyOp8
 70
     1
102
RTVSPropertyOp9
 70
     1
102
RTVSPropertyOp10
 70
     1
102
RTVSPropertyOp11
 70
     1
102
RTVSPropertyOp12
 70
     1
102
RTVSPropertyOp13
 70
     1
102
RTVSPropertyOp14
 70
     1
102
RTVSPropertyOp15
 70
     1
102
RTVSPropertyOp16
 70
     1
102
RTVSPropertyOp17
 70
     1
102
RTVSPropertyOp18
 70
     1
102
RTVSPropertyOp19
 70
     1
102
RTVSPropertyOp20
 70
     1
102
RTVSPropertyOp21
 70
     1
102
RTVSPropertyOp22
 70
     1
102
RTVSPropertyOp23
 70
     1
102
RTVSPropertyOp24
 70
     1
102
RTVSPropertyOp25
 70
     1
102
RTVSPropertyOp26
 70
     1
102
RTVSPropertyOp27
 70
     1
102
RTVSPropertyOp28
 70
     1
102
RTVSPropertyOp29
 70
     1
102
RTVSPropertyOp30
 70
     1
102
RTVSPropertyOp31
 70
     1
102
RTVSPropertyOp32
 70
     1
  0
XRECORD
  5
285
102
{ACAD_REACTORS
330
284
102
}
330
284
100
AcDbXrecord
280
     1
102
RTVSPropertyOp0
 70
     1
102
RTVSPropertyOp1
 70
     1
102
RTVSPropertyOp2
 70
     1
102
RTVSPropertyOp3
 70
     1
102
RTVSPropertyOp4
 70
     1
102
RTVSPropertyOp5
 70
     1
102
RTVSPropertyOp6
 70
     1
102
RTVSPropertyOp7
 70
     1
102
RTVSPropertyOp8
 70
     1
102
RTVSPropertyOp9
 70
     1
102
RTVSPropertyOp10
 70
     1
102
RTVSPropertyOp11
 70
     1
102
RTVSPropertyOp12
 70
     1
102
RTVSPropertyOp13
 70
     1
102
RTVSPropertyOp14
 70
     1
102
RTVSPropertyOp15
 70
     1
102
RTVSPropertyOp16
 70
     1
102
RTVSPropertyOp17
 70
     1
102
RTVSPropertyOp18
 70
     1
102
RTVSPropertyOp19
 70
     1
102
RTVSPropertyOp20
 70
     1
102
RTVSPropertyOp21
 70
     1
102
RTVSPropertyOp22
 70
     1
102
RTVSPropertyOp23
 70
     1
102
RTVSPropertyOp24
 70
     1
102
RTVSPropertyOp25
 70
     1
102
RTVSPropertyOp26
 70
     1
102
RTVSPropertyOp27
 70
     1
102
RTVSPropertyOp28
 70
     1
102
RTVSPropertyOp29
 70
     1
102
RTVSPropertyOp30
 70
     1
102
RTVSPropertyOp31
 70
     1
102
RTVSPropertyOp32
 70
     1
  0
XRECORD
  5
28D
102
{ACAD_REACTORS
330
28C
102
}
330
28C
100
AcDbXrecord
280
     1
102
RTVSPropertyOp0
 70
     1
102
RTVSPropertyOp1
 70
     1
102
RTVSPropertyOp2
 70
     1
102
RTVSPropertyOp3
 70
     1
102
RTVSPropertyOp4
 70
     1
102
RTVSPropertyOp5
 70
     1
102
RTVSPropertyOp6
 70
     1
102
RTVSPropertyOp7
 70
     1
102
RTVSPropertyOp8
 70
     1
102
RTVSPropertyOp9
 70
     1
102
RTVSPropertyOp10
 70
     1
102
RTVSPropertyOp11
 70
     1
102
RTVSPropertyOp12
 70
     1
102
RTVSPropertyOp13
 70
     1
102
RTVSPropertyOp14
 70
     1
102
RTVSPropertyOp15
 70
     1
102
RTVSPropertyOp16
 70
     1
102
RTVSPropertyOp17
 70
     1
102
RTVSPropertyOp18
 70
     1
102
RTVSPropertyOp19
 70
     1
102
RTVSPropertyOp20
 70
     1
102
RTVSPropertyOp21
 70
     1
102
RTVSPropertyOp22
 70
     1
102
RTVSPropertyOp23
 70
     1
102
RTVSPropertyOp24
 70
     1
102
RTVSPropertyOp25
 70
     1
102
RTVSPropertyOp26
 70
     1
102
RTVSPropertyOp27
 70
     1
102
RTVSPropertyOp28
 70
     1
102
RTVSPropertyOp29
 70
     1
102
RTVSPropertyOp30
 70
     1
102
RTVSPropertyOp31
 70
     1
102
RTVSPropertyOp32
 70
     1
  0
XRECORD
  5
295
102
{ACAD_REACTORS
330
294
102
}
330
294
100
AcDbXrecord
280
     1
102
RTVSPropertyOp0
 70
     1
102
RTVSPropertyOp1
 70
     1
102
RTVSPropertyOp2
 70
     1
102
RTVSPropertyOp3
 70
     1
102
RTVSPropertyOp4
 70
     1
102
RTVSPropertyOp5
 70
     1
102
RTVSPropertyOp6
 70
     1
102
RTVSPropertyOp7
 70
     1
102
RTVSPropertyOp8
 70
     1
102
RTVSPropertyOp9
 70
     1
102
RTVSPropertyOp10
 70
     1
102
RTVSPropertyOp11
 70
     1
102
RTVSPropertyOp12
 70
     1
102
RTVSPropertyOp13
 70
     1
102
RTVSPropertyOp14
 70
     1
102
RTVSPropertyOp15
 70
     1
102
RTVSPropertyOp16
 70
     1
102
RTVSPropertyOp17
 70
     1
102
RTVSPropertyOp18
 70
     1
102
RTVSPropertyOp19
 70
     1
102
RTVSPropertyOp20
 70
     1
102
RTVSPropertyOp21
 70
     1
102
RTVSPropertyOp22
 70
     1
102
RTVSPropertyOp23
 70
     1
102
RTVSPropertyOp24
 70
     1
102
RTVSPropertyOp25
 70
     1
102
RTVSPropertyOp26
 70
     1
102
RTVSPropertyOp27
 70
     1
102
RTVSPropertyOp28
 70
     1
102
RTVSPropertyOp29
 70
     1
102
RTVSPropertyOp30
 70
     1
102
RTVSPropertyOp31
 70
     1
102
RTVSPropertyOp32
 70
     1
  0
XRECORD
  5
289
102
{ACAD_REACTORS
330
288
102
}
330
288
100
AcDbXrecord
280
     1
102
RTVSPropertyOp0
 70
     1
102
RTVSPropertyOp1
 70
     1
102
RTVSPropertyOp2
 70
     1
102
RTVSPropertyOp3
 70
     1
102
RTVSPropertyOp4
 70
     1
102
RTVSPropertyOp5
 70
     1
102
RTVSPropertyOp6
 70
     1
102
RTVSPropertyOp7
 70
     1
102
RTVSPropertyOp8
 70
     1
102
RTVSPropertyOp9
 70
     1
102
RTVSPropertyOp10
 70
     1
102
RTVSPropertyOp11
 70
     1
102
RTVSPropertyOp12
 70
     1
102
RTVSPropertyOp13
 70
     1
102
RTVSPropertyOp14
 70
     1
102
RTVSPropertyOp15
 70
     1
102
RTVSPropertyOp16
 70
     1
102
RTVSPropertyOp17
 70
     1
102
RTVSPropertyOp18
 70
     1
102
RTVSPropertyOp19
 70
     1
102
RTVSPropertyOp20
 70
     1
102
RTVSPropertyOp21
 70
     1
102
RTVSPropertyOp22
 70
     1
102
RTVSPropertyOp23
 70
     1
102
RTVSPropertyOp24
 70
     1
102
RTVSPropertyOp25
 70
     1
102
RTVSPropertyOp26
 70
     1
102
RTVSPropertyOp27
 70
     1
102
RTVSPropertyOp28
 70
     1
102
RTVSPropertyOp29
 70
     1
102
RTVSPropertyOp30
 70
     1
102
RTVSPropertyOp31
 70
     1
102
RTVSPropertyOp32
 70
     1
  0
XRECORD
  5
28B
102
{ACAD_REACTORS
330
28A
102
}
330
28A
100
AcDbXrecord
280
     1
102
RTVSPropertyOp0
 70
     1
102
RTVSPropertyOp1
 70
     1
102
RTVSPropertyOp2
 70
     1
102
RTVSPropertyOp3
 70
     1
102
RTVSPropertyOp4
 70
     1
102
RTVSPropertyOp5
 70
     1
102
RTVSPropertyOp6
 70
     1
102
RTVSPropertyOp7
 70
     1
102
RTVSPropertyOp8
 70
     1
102
RTVSPropertyOp9
 70
     1
102
RTVSPropertyOp10
 70
     1
102
RTVSPropertyOp11
 70
     1
102
RTVSPropertyOp12
 70
     1
102
RTVSPropertyOp13
 70
     1
102
RTVSPropertyOp14
 70
     1
102
RTVSPropertyOp15
 70
     1
102
RTVSPropertyOp16
 70
     1
102
RTVSPropertyOp17
 70
     1
102
RTVSPropertyOp18
 70
     1
102
RTVSPropertyOp19
 70
     1
102
RTVSPropertyOp20
 70
     1
102
RTVSPropertyOp21
 70
     1
102
RTVSPropertyOp22
 70
     1
102
RTVSPropertyOp23
 70
     1
102
RTVSPropertyOp24
 70
     1
102
RTVSPropertyOp25
 70
     1
102
RTVSPropertyOp26
 70
     1
102
RTVSPropertyOp27
 70
     1
102
RTVSPropertyOp28
 70
     1
102
RTVSPropertyOp29
 70
     1
102
RTVSPropertyOp30
 70
     1
102
RTVSPropertyOp31
 70
     1
102
RTVSPropertyOp32
 70
     1
  0
XRECORD
  5
293
102
{ACAD_REACTORS
330
292
102
}
330
292
100
AcDbXrecord
280
     1
102
RTVSPropertyOp0
 70
     1
102
RTVSPropertyOp1
 70
     1
102
RTVSPropertyOp2
 70
     1
102
RTVSPropertyOp3
 70
     1
102
RTVSPropertyOp4
 70
     1
102
RTVSPropertyOp5
 70
     1
102
RTVSPropertyOp6
 70
     1
102
RTVSPropertyOp7
 70
     1
102
RTVSPropertyOp8
 70
     1
102
RTVSPropertyOp9
 70
     1
102
RTVSPropertyOp10
 70
     1
102
RTVSPropertyOp11
 70
     1
102
RTVSPropertyOp12
 70
     1
102
RTVSPropertyOp13
 70
     1
102
RTVSPropertyOp14
 70
     1
102
RTVSPropertyOp15
 70
     1
102
RTVSPropertyOp16
 70
     1
102
RTVSPropertyOp17
 70
     1
102
RTVSPropertyOp18
 70
     1
102
RTVSPropertyOp19
 70
     1
102
RTVSPropertyOp20
 70
     1
102
RTVSPropertyOp21
 70
     1
102
RTVSPropertyOp22
 70
     1
102
RTVSPropertyOp23
 70
     1
102
RTVSPropertyOp24
 70
     1
102
RTVSPropertyOp25
 70
     1
102
RTVSPropertyOp26
 70
     1
102
RTVSPropertyOp27
 70
     1
102
RTVSPropertyOp28
 70
     1
102
RTVSPropertyOp29
 70
     1
102
RTVSPropertyOp30
 70
     1
102
RTVSPropertyOp31
 70
     1
102
RTVSPropertyOp32
 70
     1
  0
XRECORD
  5
277
102
{ACAD_REACTORS
330
276
102
}
330
276
100
AcDbXrecord
280
     1
102
RTVSPropertyOp0
 70
     1
102
RTVSPropertyOp1
 70
     1
102
RTVSPropertyOp2
 70
     1
102
RTVSPropertyOp3
 70
     1
102
RTVSPropertyOp4
 70
     1
102
RTVSPropertyOp5
 70
     1
102
RTVSPropertyOp6
 70
     1
102
RTVSPropertyOp7
 70
     1
102
RTVSPropertyOp8
 70
     1
102
RTVSPropertyOp9
 70
     1
102
RTVSPropertyOp10
 70
     1
102
RTVSPropertyOp11
 70
     1
102
RTVSPropertyOp12
 70
     1
102
RTVSPropertyOp13
 70
     1
102
RTVSPropertyOp14
 70
     1
102
RTVSPropertyOp15
 70
     1
102
RTVSPropertyOp16
 70
     1
102
RTVSPropertyOp17
 70
     1
102
RTVSPropertyOp18
 70
     1
102
RTVSPropertyOp19
 70
     1
102
RTVSPropertyOp20
 70
     1
102
RTVSPropertyOp21
 70
     1
102
RTVSPropertyOp22
 70
     1
102
RTVSPropertyOp23
 70
     1
102
RTVSPropertyOp24
 70
     1
102
RTVSPropertyOp25
 70
     1
102
RTVSPropertyOp26
 70
     1
102
RTVSPropertyOp27
 70
     1
102
RTVSPropertyOp28
 70
     1
102
RTVSPropertyOp29
 70
     1
102
RTVSPropertyOp30
 70
     1
102
RTVSPropertyOp31
 70
     1
102
RTVSPropertyOp32
 70
     1
  0
XRECORD
  5
279
102
{ACAD_REACTORS
330
278
102
}
330
278
100
AcDbXrecord
280
     1
102
RTVSPropertyOp0
 70
     1
102
RTVSPropertyOp1
 70
     1
102
RTVSPropertyOp2
 70
     1
102
RTVSPropertyOp3
 70
     1
102
RTVSPropertyOp4
 70
     1
102
RTVSPropertyOp5
 70
     1
102
RTVSPropertyOp6
 70
     1
102
RTVSPropertyOp7
 70
     1
102
RTVSPropertyOp8
 70
     1
102
RTVSPropertyOp9
 70
     1
102
RTVSPropertyOp10
 70
     1
102
RTVSPropertyOp11
 70
     1
102
RTVSPropertyOp12
 70
     1
102
RTVSPropertyOp13
 70
     1
102
RTVSPropertyOp14
 70
     1
102
RTVSPropertyOp15
 70
     1
102
RTVSPropertyOp16
 70
     1
102
RTVSPropertyOp17
 70
     1
102
RTVSPropertyOp18
 70
     1
102
RTVSPropertyOp19
 70
     1
102
RTVSPropertyOp20
 70
     1
102
RTVSPropertyOp21
 70
     1
102
RTVSPropertyOp22
 70
     1
102
RTVSPropertyOp23
 70
     1
102
RTVSPropertyOp24
 70
     1
102
RTVSPropertyOp25
 70
     1
102
RTVSPropertyOp26
 70
     1
102
RTVSPropertyOp27
 70
     1
102
RTVSPropertyOp28
 70
     1
102
RTVSPropertyOp29
 70
     1
102
RTVSPropertyOp30
 70
     1
102
RTVSPropertyOp31
 70
     1
102
RTVSPropertyOp32
 70
     1
  0
XRECORD
  5
27B
102
{ACAD_REACTORS
330
27A
102
}
330
27A
100
AcDbXrecord
280
     1
102
RTVSPropertyOp0
 70
     1
102
RTVSPropertyOp1
 70
     1
102
RTVSPropertyOp2
 70
     1
102
RTVSPropertyOp3
 70
     1
102
RTVSPropertyOp4
 70
     1
102
RTVSPropertyOp5
 70
     1
102
RTVSPropertyOp6
 70
     1
102
RTVSPropertyOp7
 70
     1
102
RTVSPropertyOp8
 70
     1
102
RTVSPropertyOp9
 70
     1
102
RTVSPropertyOp10
 70
     1
102
RTVSPropertyOp11
 70
     1
102
RTVSPropertyOp12
 70
     1
102
RTVSPropertyOp13
 70
     1
102
RTVSPropertyOp14
 70
     1
102
RTVSPropertyOp15
 70
     1
102
RTVSPropertyOp16
 70
     1
102
RTVSPropertyOp17
 70
     1
102
RTVSPropertyOp18
 70
     1
102
RTVSPropertyOp19
 70
     1
102
RTVSPropertyOp20
 70
     1
102
RTVSPropertyOp21
 70
     1
102
RTVSPropertyOp22
 70
     1
102
RTVSPropertyOp23
 70
     1
102
RTVSPropertyOp24
 70
     1
102
RTVSPropertyOp25
 70
     1
102
RTVSPropertyOp26
 70
     1
102
RTVSPropertyOp27
 70
     1
102
RTVSPropertyOp28
 70
     1
102
RTVSPropertyOp29
 70
     1
102
RTVSPropertyOp30
 70
     1
102
RTVSPropertyOp31
 70
     1
102
RTVSPropertyOp32
 70
     1
  0
XRECORD
  5
27D
102
{ACAD_REACTORS
330
27C
102
}
330
27C
100
AcDbXrecord
280
     1
102
RTVSPropertyOp0
 70
     1
102
RTVSPropertyOp1
 70
     1
102
RTVSPropertyOp2
 70
     1
102
RTVSPropertyOp3
 70
     1
102
RTVSPropertyOp4
 70
     1
102
RTVSPropertyOp5
 70
     1
102
RTVSPropertyOp6
 70
     1
102
RTVSPropertyOp7
 70
     1
102
RTVSPropertyOp8
 70
     1
102
RTVSPropertyOp9
 70
     1
102
RTVSPropertyOp10
 70
     1
102
RTVSPropertyOp11
 70
     1
102
RTVSPropertyOp12
 70
     1
102
RTVSPropertyOp13
 70
     1
102
RTVSPropertyOp14
 70
     1
102
RTVSPropertyOp15
 70
     1
102
RTVSPropertyOp16
 70
     1
102
RTVSPropertyOp17
 70
     1
102
RTVSPropertyOp18
 70
     1
102
RTVSPropertyOp19
 70
     1
102
RTVSPropertyOp20
 70
     1
102
RTVSPropertyOp21
 70
     1
102
RTVSPropertyOp22
 70
     1
102
RTVSPropertyOp23
 70
     1
102
RTVSPropertyOp24
 70
     1
102
RTVSPropertyOp25
 70
     1
102
RTVSPropertyOp26
 70
     1
102
RTVSPropertyOp27
 70
     1
102
RTVSPropertyOp28
 70
     1
102
RTVSPropertyOp29
 70
     1
102
RTVSPropertyOp30
 70
     1
102
RTVSPropertyOp31
 70
     1
102
RTVSPropertyOp32
 70
     1
  0
XRECORD
  5
291
102
{ACAD_REACTORS
330
290
102
}
330
290
100
AcDbXrecord
280
     1
102
RTVSPropertyOp0
 70
     1
102
RTVSPropertyOp1
 70
     1
102
RTVSPropertyOp2
 70
     1
102
RTVSPropertyOp3
 70
     1
102
RTVSPropertyOp4
 70
     1
102
RTVSPropertyOp5
 70
     1
102
RTVSPropertyOp6
 70
     1
102
RTVSPropertyOp7
 70
     1
102
RTVSPropertyOp8
 70
     1
102
RTVSPropertyOp9
 70
     1
102
RTVSPropertyOp10
 70
     1
102
RTVSPropertyOp11
 70
     1
102
RTVSPropertyOp12
 70
     1
102
RTVSPropertyOp13
 70
     1
102
RTVSPropertyOp14
 70
     1
102
RTVSPropertyOp15
 70
     1
102
RTVSPropertyOp16
 70
     1
102
RTVSPropertyOp17
 70
     1
102
RTVSPropertyOp18
 70
     1
102
RTVSPropertyOp19
 70
     1
102
RTVSPropertyOp20
 70
     1
102
RTVSPropertyOp21
 70
     1
102
RTVSPropertyOp22
 70
     1
102
RTVSPropertyOp23
 70
     1
102
RTVSPropertyOp24
 70
     1
102
RTVSPropertyOp25
 70
     1
102
RTVSPropertyOp26
 70
     1
102
RTVSPropertyOp27
 70
     1
102
RTVSPropertyOp28
 70
     1
102
RTVSPropertyOp29
 70
     1
102
RTVSPropertyOp30
 70
     1
102
RTVSPropertyOp31
 70
     1
102
RTVSPropertyOp32
 70
     1
  0
XRECORD
  5
287
102
{ACAD_REACTORS
330
286
102
}
330
286
100
AcDbXrecord
280
     1
102
RTVSPropertyOp0
 70
     1
102
RTVSPropertyOp1
 70
     1
102
RTVSPropertyOp2
 70
     1
102
RTVSPropertyOp3
 70
     1
102
RTVSPropertyOp4
 70
     1
102
RTVSPropertyOp5
 70
     1
102
RTVSPropertyOp6
 70
     1
102
RTVSPropertyOp7
 70
     1
102
RTVSPropertyOp8
 70
     1
102
RTVSPropertyOp9
 70
     1
102
RTVSPropertyOp10
 70
     1
102
RTVSPropertyOp11
 70
     1
102
RTVSPropertyOp12
 70
     1
102
RTVSPropertyOp13
 70
     1
102
RTVSPropertyOp14
 70
     1
102
RTVSPropertyOp15
 70
     1
102
RTVSPropertyOp16
 70
     1
102
RTVSPropertyOp17
 70
     1
102
RTVSPropertyOp18
 70
     1
102
RTVSPropertyOp19
 70
     1
102
RTVSPropertyOp20
 70
     1
102
RTVSPropertyOp21
 70
     1
102
RTVSPropertyOp22
 70
     1
102
RTVSPropertyOp23
 70
     1
102
RTVSPropertyOp24
 70
     1
102
RTVSPropertyOp25
 70
     1
102
RTVSPropertyOp26
 70
     1
102
RTVSPropertyOp27
 70
     1
102
RTVSPropertyOp28
 70
     1
102
RTVSPropertyOp29
 70
     1
102
RTVSPropertyOp30
 70
     1
102
RTVSPropertyOp31
 70
     1
102
RTVSPropertyOp32
 70
     1
  0
XRECORD
  5
28F
102
{ACAD_REACTORS
330
28E
102
}
330
28E
100
AcDbXrecord
280
     1
102
RTVSPropertyOp0
 70
     1
102
RTVSPropertyOp1
 70
     1
102
RTVSPropertyOp2
 70
     1
102
RTVSPropertyOp3
 70
     1
102
RTVSPropertyOp4
 70
     1
102
RTVSPropertyOp5
 70
     1
102
RTVSPropertyOp6
 70
     1
102
RTVSPropertyOp7
 70
     1
102
RTVSPropertyOp8
 70
     1
102
RTVSPropertyOp9
 70
     1
102
RTVSPropertyOp10
 70
     1
102
RTVSPropertyOp11
 70
     1
102
RTVSPropertyOp12
 70
     1
102
RTVSPropertyOp13
 70
     1
102
RTVSPropertyOp14
 70
     1
102
RTVSPropertyOp15
 70
     1
102
RTVSPropertyOp16
 70
     1
102
RTVSPropertyOp17
 70
     1
102
RTVSPropertyOp18
 70
     1
102
RTVSPropertyOp19
 70
     1
102
RTVSPropertyOp20
 70
     1
102
RTVSPropertyOp21
 70
     1
102
RTVSPropertyOp22
 70
     1
102
RTVSPropertyOp23
 70
     1
102
RTVSPropertyOp24
 70
     1
102
RTVSPropertyOp25
 70
     1
102
RTVSPropertyOp26
 70
     1
102
RTVSPropertyOp27
 70
     1
102
RTVSPropertyOp28
 70
     1
102
RTVSPropertyOp29
 70
     1
102
RTVSPropertyOp30
 70
     1
102
RTVSPropertyOp31
 70
     1
102
RTVSPropertyOp32
 70
     1
  0
ENDSEC
  0
EOF
